Walt Disney - Grand Canyon (1958)

Walt Disney - Grand Canyon (1958)

Walt Disney - Grand Canyon (1958)
HDTV | 1920x824 | .MKV/AVC @ 11.6 Mb/s | 28 min 56 s | 2.65 GiB
Audio: English DTS 1509 kbps, 6 channels | Subs: Polski
Genre: Documentary

Scenes from the Grand Canyon set to Ferde Grofé's "Grand Canyon Suite." Grand Canyon is one of Walt Disney's more unconventional and experimental works, as it has musical accompaniment, but no dialogue or narration.

General
Unique ID : 236134161730011856394258043336334168923 (0xB1A5C909370EE99D72B1655DD8C2D35B)
Complete name : Grand.Canyon.1080p.mkv
Format : Matroska
Format version : Version 4 / Version 2
File size : 2.65 GiB
Duration : 28 min 56 s
Overall bit rate : 13.1 Mb/s

Video
ID : 1
Format : AVC
Format/Info : Advanced Video Codec
Format profile : High@L4.1
Format settings, CABAC : Yes
Format settings, ReFrames : 5 frames
Codec ID : V_MPEG4/ISO/AVC
Duration : 28 min 56 s
Bit rate : 11.6 Mb/s
Width : 1 920 pixels
Height : 824 pixels
Display aspect ratio : 2.35:1
Frame rate mode : Constant
Frame rate : 23.976 (24000/1001) FPS
Color space : YUV
Chroma subsampling : 4:2:0
Bit depth : 8 bits
Scan type : Progressive
Bits/(Pixel*Frame) : 0.306
Stream size : 2.34 GiB (88%)
Writing library : x264 core 157 r2969 d4099dd
Encoding settings : cabac=1 / ref=5 / deblock=1:-3:-3 / analyse=0x3:0x133 / me=umh / subme=9 / psy=1 / psy_rd=1.00:0.00 / mixed_ref=1 / me_range=16 / chroma_me=1 / trellis=2 / 8x8dct=1 / cqm=0 / deadzone=21,11 / fast_pskip=0 / chroma_qp_offset=-2 / threads=12 / lookahead_threads=1 / sliced_threads=0 / nr=0 / decimate=1 / interlaced=0 / bluray_compat=0 / constrained_intra=0 / bframes=3 / b_pyramid=2 / b_adapt=2 / b_bias=0 / direct=3 / weightb=1 / open_gop=0 / weightp=2 / keyint=250 / keyint_min=23 / scenecut=40 / intra_refresh=0 / rc_lookahead=60 / rc=2pass / mbtree=1 / bitrate=11591 / ratetol=1.0 / qcomp=0.60 / qpmin=10 / qpmax=69 / qpstep=4 / cplxblur=20.0 / qblur=0.5 / ip_ratio=1.40 / aq=1:0.70
Default : Yes
Forced : No

Audio
ID : 2
Format : DTS
Format/Info : Digital Theater Systems
Mode : 16
Format settings, Endianness : Big
Codec ID : A_DTS
Duration : 28 min 56 s
Bit rate mode : Constant
Bit rate : 1 509 kb/s
Channel(s) : 6 channels
Channel positions : Front: L C R, Side: L R, LFE
Sampling rate : 48.0 kHz
Frame rate : 93.750 FPS (512 spf)
Bit depth : 24 bits
Compression mode : Lossy
Stream size : 312 MiB (12%)
Title : English DTS 1509 kbps
Language : English
Default : Yes
Forced : No

Text
ID : 3
Format : UTF-8
Codec ID : S_TEXT/UTF8
Codec ID/Info : UTF-8 Plain Text
Duration : 27 min 28 s
Bit rate : 0 b/s
Count of elements : 5
Stream size : 189 Bytes (0%)
Title : Polish
Language : Polish
Default : No
Forced : No


Screenshots:

Walt Disney - Grand Canyon (1958)

Walt Disney - Grand Canyon (1958)

Walt Disney - Grand Canyon (1958)

Walt Disney - Grand Canyon (1958)