Let There Be Light (1946)

Let There Be Light (1946)

Let There Be Light (1946)
720p BluRay | 960 x 720 | .MKV/AVC @ 4999 Kbps | 57min 55s | 2.18 GB
Audio: English FLAC 381 Kbps, 2 channels | Subs: None
Genre: Documentary, War

The final entry in a trilogy of films produced for the U.S. government by John Huston. This documentary film follows 75 U.S. soldiers who have sustained debilitating emotional trauma and depression. A series of scenes chronicle their entry into a psychiatric hospital, their treatment and eventual recovery.
Director: John Huston
Writer: John Huston
Star: Walter Huston

More info: IMDB

General
Unique ID : 194457132228486233703280550339913946442 (0x924B14D5B40057A2B999949DC96B954A)
Complete name : Let.There.Be.Light.1946.mkv
Format : Matroska
Format version : Version 4 / Version 2
File size : 2.18 GiB
Duration : 57 min 55 s
Overall bit rate mode : Variable
Overall bit rate : 5 381 kb/s
Encoded date : UTC 2017-05-07 01:13:24
Writing application : mkvmerge v11.0.0 ('Alive') 64bit
Writing library : libebml v1.3.4 + libmatroska v1.4.5

Video
ID : 1
Format : AVC
Format/Info : Advanced Video Codec
Format profile : High@L4.1
Format settings, CABAC : Yes
Format settings, ReFrames : 5 frames
Codec ID : V_MPEG4/ISO/AVC
Duration : 57 min 55 s
Bit rate : 4 999 kb/s
Width : 960 pixels
Height : 720 pixels
Display aspect ratio : 4:3
Frame rate mode : Constant
Frame rate : 23.976 (24000/1001) FPS
Color space : YUV
Chroma subsampling : 4:2:0
Bit depth : 8 bits
Scan type : Progressive
Bits/(Pixel*Frame) : 0.302
Stream size : 2.02 GiB (93%)
Writing library : x264 core 148 r2744 b97ae06
Encoding settings : cabac=1 / ref=5 / deblock=1:-3:-3 / analyse=0x3:0x113 / me=umh / subme=8 / psy=1 / psy_rd=1.00:0.25 / mixed_ref=1 / me_range=24 / chroma_me=1 / trellis=1 / 8x8dct=1 / cqm=0 / deadzone=21,11 / fast_pskip=1 / chroma_qp_offset=-4 / threads=22 / lookahead_threads=3 / sliced_threads=0 / nr=0 / decimate=1 / interlaced=0 / bluray_compat=0 / constrained_intra=0 / bframes=3 / b_pyramid=2 / b_adapt=1 / b_bias=0 / direct=3 / weightb=1 / open_gop=0 / weightp=2 / keyint=240 / keyint_min=24 / scenecut=40 / intra_refresh=0 / rc_lookahead=50 / rc=2pass / mbtree=1 / bitrate=4999 / ratetol=1.0 / qcomp=0.60 / qpmin=0 / qpmax=69 / qpstep=4 / cplxblur=20.0 / qblur=0.5 / ip_ratio=1.40 / aq=1:0.75
Default : Yes
Forced : No

Audio
ID : 2
Format : FLAC
Format/Info : Free Lossless Audio Codec
Codec ID : A_FLAC
Duration : 57 min 55 s
Bit rate mode : Variable
Bit rate : 381 kb/s
Channel(s) : 2 channels
Channel positions : Front: L R
Sampling rate : 48.0 kHz
Frame rate : 11.719 FPS (4096 spf)
Bit depth : 16 bits
Stream size : 158 MiB (7%)
Writing library : libFLAC 1.2.1 (UTC 2007-09-17)
Language : English
Default : Yes
Forced : No

Menu
00:00:00.000 : en:00:00:00.000
00:09:35.408 : en:00:09:35.408
00:19:58.155 : en:00:19:58.155
00:30:06.638 : en:00:30:06.638
00:40:04.986 : en:00:40:04.986
00:50:08.839 : en:00:50:08.839
Screenshots

Let There Be Light (1946)

Let There Be Light (1946)

Let There Be Light (1946)

Welcome to my blog - daily update!

Let There Be Light (1946)