The Invincible Kung Fu Legs (1980) **[RE-UP]**

The Invincible Kung Fu Legs (1980) **[RE-UP]**

The Invincible Kung Fu Legs (1980)
DVD rip | AVI: 2500 kbps | 720 x 480 | MP3 (320 Kbps) | 91 min | English | 1.8 gb
Genre: kung fu, martial arts, comedy, drama

This is the English dubbed version of 南北腿王 (Nan Bei Tui Wang), released under the titles The Invincible Kung Fu Legs, Incredible Death Kick Master and The Leg Fighters. This is taken from The Invincible Kung Fu Legs pressing. Originally released in 1980, a Northern Chinese kung fu expert named Tan (played by Tao-Liang Tan/Tarn Daw Liang) kills a man using his lethal bootwork in self defense. He is then hired to train a bratty princess (played by Kuang-Li Hsia/Shiah Guang Lih) and her servant (played by Chin Lung Shao/Jin Long) in kung fu. In the meantime, the brother of the man Tan killed is out for revenge and he'll get him at any cost.

The Invincible Kung Fu Legs (1980) **[RE-UP]**

The Invincible Kung Fu Legs (1980) **[RE-UP]**


General
Complete name : E:\FLAC\AAA 2017\Vids\The Invincible Kung Fu Legs (1980)\Invincible Kung Fu Legs.avi
Format : AVI
Format/Info : Audio Video Interleave
Format profile : OpenDML
File size : 1.81 GiB
Duration : 1h 31mn
Overall bit rate : 2 834 Kbps
Writing application : Lavf51.12.1

Video
ID : 0
Format : MPEG-4 Visual
Format profile : Simple@L1
Format settings, BVOP : No
Format settings, QPel : No
Format settings, GMC : No warppoints
Format settings, Matrix : Default (H.263)
Codec ID : DX50
Codec ID/Hint : DivX 5
Duration : 1h 31mn
Bit rate : 2 500 Kbps
Width : 720 pixels
Height : 480 pixels
Display aspect ratio : 3:2
Frame rate : 29.970 fps
Standard : NTSC
Color space : YUV
Chroma subsampling : 4:2:0
Bit depth : 8 bits
Scan type : Progressive
Compression mode : Lossy
Bits/(Pixel*Frame) : 0.241
Stream size : 1.60 GiB (88%)
Writing library : Lavc51.40.4

Audio
ID : 1
Format : MPEG Audio
Format version : Version 1
Format profile : Layer 3
Mode : Joint stereo
Mode extension : MS Stereo
Codec ID : 55
Codec ID/Hint : MP3
Duration : 1h 31mn
Bit rate mode : Constant
Bit rate : 320 Kbps
Channel(s) : 2 channels
Sampling rate : 48.0 KHz
Compression mode : Lossy
Stream size : 209 MiB (11%)
Alignment : Aligned on interleaves
Interleave, duration : 24 ms (0.72 video frame)