How Hitler Lost the War (1989)

How Hitler Lost the War (1989)

How Hitler Lost the War (1989)
PDTV | 640 x 480 | .AVI/XviD @ 1339 Kbps | 1h 7mn | English AC-3 192 Kbps, 2 channels | 742 MB
Genre: Documentary, History, War

Using rarely seen film footage, this documentary shows that Hitler's defeat in World War II was due less to Allied supremacy than to his own shortcomings as a military strategist.
Interviewing German officers, the film shows how the course of history could have been changed with a few key decisions.
Among them, Hitler's initial reluctance to bomb Britain; his refusal to proceed with the building of the Messerschmidt 262; his harsh treatment of the Ukrainians, who had welcomed Hitler as a savior from communism; and his biggest blunder, fighting a two-front campaign. This intriguing documentary recapitulates the major military events of the European theater of war.
Related Documentaries:
Generals at War: The Battle of Kursk (2009)
A&E Biography - Joseph Stalin: Red Terror (1996)
BBC - Surviving the Holocaust: Freddie Knoller's War (2015)
Hunting Hitler's Stolen Treasures: The Monuments Men (2014)
In Love with Adolf Hitler (2007)
History Channel - Hunting Hitler: Series 2 (2016)
Ben Building: Mussolini, Monuments and Modernism (2016)
BBC Storyville - Hitler, Stalin and Mr Jones (2012)
BBC - Hunting the Nazi Gold Train (2016)
National Geographic - Hitlers Suicide Ship (2010)
CH4 Time Team - Hitlers Island Fortress (2011)
HC Battle Stations - Hitlers Vengeance Weapons (2001)
PBS Nova - 3D Spies of WWII (2012)
Hitlers Museum - The Secret History of Art Theft during World War 2 (2008)
National Geographic - Nazi Megastructures: Season 2 (2014)
History Channel - WWII in HD (2009)
BBC - Secrets of World War II: The Enigma Secret (1998)
The Fatal Attraction of Adolf Hitler (1989)
Apocalypse: The Second World War (2009)

General
Complete name : The.War.Collection.How.Hitler.Lost.the.War.avi
Format : AVI
Format/Info : Audio Video Interleave
File size : 742 MiB
Duration : 1h 7mn
Overall bit rate : 1 542 Kbps
Writing application : VirtualDubMod 1.5.10.2 (build 2540/release)
Writing library : VirtualDubMod build 2540/release

Video
ID : 0
Format : MPEG-4 Visual
Format profile : Advanced Simple@L5
Format settings, BVOP : 1
Format settings, QPel : No
Format settings, GMC : No warppoints
Format settings, Matrix : Custom
Codec ID : XVID
Codec ID/Hint : XviD
Duration : 1h 7mn
Bit rate : 1 339 Kbps
Width : 640 pixels
Height : 480 pixels
Display aspect ratio : 4:3
Frame rate : 29.970 fps
Color space : YUV
Chroma subsampling : 4:2:0
Bit depth : 8 bits
Scan type : Progressive
Compression mode : Lossy
Bits/(Pixel*Frame) : 0.145
Stream size : 644 MiB (87%)
Writing library : XviD 1.1.0 (UTC 2005-11-22)

Audio
ID : 1
Format : AC-3
Format/Info : Audio Coding 3
Mode extension : CM (complete main)
Codec ID : 2000
Duration : 1h 7mn
Bit rate mode : Constant
Bit rate : 192 Kbps
Channel(s) : 2 channels
Channel positions : Front: L R
Sampling rate : 48.0 KHz
Bit depth : 16 bits
Compression mode : Lossy
Stream size : 92.3 MiB (12%)
Alignment : Split accross interleaves
Interleave, duration : 33 ms (1.00 video frame)
Interleave, preload duration : 64 ms
Screenshots

How Hitler Lost the War (1989)

How Hitler Lost the War (1989)

How Hitler Lost the War (1989)

How Hitler Lost the War (1989)

How Hitler Lost the War (1989)

How Hitler Lost the War (1989)

Welcome to my blog - daily update!

How Hitler Lost the War (1989)