Hard Ticket to Hawaii (1987)

Hard Ticket to Hawaii (1987)

Hard Ticket to Hawaii (1987)
BDRip | MKV | 1920x1080 | English | H264 @ 11545 kbps | DTS @ 1509 kbps | 1 h 35 min | 8.75 GiB
Genre: Action, Adventure

A Molokai-based civilian pilot and an undercover DEA agent intercept a delivery of diamonds intended for druglord Seth Romero. Seth, his henchmen, and other island undesirables launch a full-scale assault on the duo. If they're going to survive, they'll need the help of agent Rowdy Abilene and his partner.

hard.ticket.to.hawaii.1987.1080p.bluray.x264-brmp-AsRequested=bbafb6003b91c88db5b0dbaed2b13c313bdcaf22.part1.rar (4.6 GB)
hard.ticket.to.hawaii.1987.1080p.bluray.x264-brmp-AsRequested=bbafb6003b91c88db5b0dbaed2b13c313bdcaf22.part2.rar (4.2 GB)



General
Unique ID : 37725399914524402701130214033035387572 (0x1C61A5D205B83BBA704EB837AFEC62B4)
Complete name : ./acd64ef1c3b94aac89189548085c2de8.mkv
Format : Matroska
Format version : Version 2
File size : 8.75 GiB
Duration : 1 h 35 min
Overall bit rate : 13.1 Mb/s
Encoded date : UTC 2019-04-22 19:49:14
Writing application : mkvmerge v32.0.0 ('Astral Progressions') 64-bit
Writing library : libebml v1.3.7 + libmatroska v1.5.0

Video
ID : 1
Format : AVC
Format/Info : Advanced Video Codec
Format profile : High@L4.1
Format settings : CABAC / 4 Ref Frames
Format settings, CABAC : Yes
Format settings, RefFrames : 4 frames
Codec ID : V_MPEG4/ISO/AVC
Duration : 1 h 35 min
Bit rate : 11.5 Mb/s
Width : 1 920 pixels
Height : 1 080 pixels
Display aspect ratio : 16:9
Frame rate mode : Constant
Frame rate : 23.976 (24000/1001) FPS
Color space : YUV
Chroma subsampling : 4:2:0
Bit depth : 8 bits
Scan type : Progressive
Bits/(Pixel*Frame) : 0.232
Stream size : 7.74 GiB (88%)
Writing library : x264 core 157 r2969 d4099dd
Encoding settings : cabac=1 / ref=4 / deblock=1:0:0 / analyse=0x3:0x133 / me=umh / subme=7 / psy=1 / psy_rd=1.00:0.00 / mixed_ref=1 / me_range=16 / chroma_me=1 / trellis=1 / 8x8dct=1 / cqm=0 / deadzone=21,11 / fast_pskip=0 / chroma_qp_offset=-2 / threads=18 / lookahead_threads=3 / sliced_threads=0 / nr=0 / decimate=1 / interlaced=0 / bluray_compat=0 / constrained_intra=0 / bframes=3 / b_pyramid=2 / b_adapt=1 / b_bias=0 / direct=1 / weightb=1 / open_gop=0 / weightp=2 / keyint=240 / keyint_min=23 / scenecut=40 / intra_refresh=0 / rc_lookahead=40 / rc=2pass / mbtree=1 / bitrate=11545 / ratetol=1.0 / qcomp=0.60 / qpmin=10 / qpmax=51 / qpstep=4 / cplxblur=20.0 / qblur=0.5 / ip_ratio=1.40 / aq=1:1.00
Default : Yes
Forced : No

Audio
ID : 2
Format : DTS
Format/Info : Digital Theater Systems
Mode : 16
Format settings, Endianness : Big
Codec ID : A_DTS
Duration : 1 h 35 min
Bit rate mode : Constant
Bit rate : 1 509 kb/s
Channel(s) : 2 channels
Channel positions : Front: L R
Sampling rate : 48.0 kHz
Frame rate : 93.750 FPS (512 SPF)
Bit depth : 24 bits
Compression mode : Lossy
Stream size : 1.01 GiB (12%)
Language : English
Default : Yes
Forced : No

Menu
00:00:00.000 : en:Chapter 01
00:23:52.306 : en:Chapter 02
00:26:52.528 : en:Chapter 03
00:40:25.506 : en:Chapter 04
00:48:04.590 : en:Chapter 05
00:51:46.979 : en:Chapter 06
01:03:31.725 : en:Chapter 07
01:09:24.494 : en:Chapter 08
01:13:08.259 : en:Chapter 09
01:20:40.753 : en:Chapter 10
01:28:20.629 : en:Chapter 11
01:35:54.457 : en:Chapter 12





Hard Ticket to Hawaii (1987)


Hard Ticket to Hawaii (1987)


Hard Ticket to Hawaii (1987)


Hard Ticket to Hawaii (1987)


Hard Ticket to Hawaii (1987)