Feuertaufe - Baptism Of Fire: Luftwaffe in Poland 1939 (1941)

Feuertaufe - Baptism Of Fire: Luftwaffe in Poland 1939 (1941)

Feuertaufe - Baptism Of Fire: Luftwaffe in Poland 1939 (1941)
DVDRip | 704 x 552 | .AVI/XviD @ 2068 Kbps | 1h 32mn | 1.63 GB
Audio: German AC-3 256 Kbps, 2 channels | Subs: English
Genre: Documentary, War

The Legend of the Luftwaffe began in Poland, the first victim of Hitler's blitzkrieg. Combat cameramen filmed the aerial campaign, showing preparations for flight, massive air strikes, and the appalling devastation wreaked upon Polish towns and armies. Highlighted by a lengthy, riveting sequence depicting the siege of Warsaw, Feuertaufe inspired Germany with pride and confidence and foreign viewers with dread. Norbert Schultze's original score lyrically enhances this propaganda masterpiece.
also You can look my other last: World War II

General
Complete name : Tobis.Filmkunst.Feuertaufe.Baptism.of.Fire.Luftwaffe.in.Poland.1939.avi
Format : AVI
Format/Info : Audio Video Interleave
Format profile : OpenDML
File size : 1.63 GiB
Duration : 1h 32mn
Overall bit rate : 2 510 Kbps

Video
ID : 0
Format : MPEG-4 Visual
Format profile : Advanced Simple@L5
Format settings, BVOP : 1
Format settings, QPel : Yes
Format settings, GMC : No warppoints
Format settings, Matrix : Custom
Codec ID : XVID
Codec ID/Hint : XviD
Duration : 1h 32mn
Bit rate : 2 068 Kbps
Width : 704 pixels
Height : 552 pixels
Display aspect ratio : 1.275
Frame rate : 29.970 fps
Color space : YUV
Chroma subsampling : 4:2:0
Bit depth : 8 bits
Scan type : Progressive
Compression mode : Lossy
Bits/(Pixel*Frame) : 0.178
Stream size : 1.34 GiB (82%)
Writing library : XviD 1.2.1 (UTC 2008-12-04)

Audio
ID : 1
Format : AC-3
Format/Info : Audio Coding 3
Mode extension : CM (complete main)
Codec ID : 2000
Duration : 1h 32mn
Bit rate mode : Constant
Bit rate : 256 Kbps
Channel(s) : 2 channels
Channel positions : Front: L R
Sampling rate : 48.0 KHz
Bit depth : 16 bits
Compression mode : Lossy
Delay relative to video : 3ms
Stream size : 170 MiB (10%)
Alignment : Split accross interleaves
Interleave, duration : 33 ms (1.00 video frame)
Interleave, preload duration : 32 ms
Screenshots

Feuertaufe - Baptism Of Fire: Luftwaffe in Poland 1939 (1941)

Feuertaufe - Baptism Of Fire: Luftwaffe in Poland 1939 (1941)

Feuertaufe - Baptism Of Fire: Luftwaffe in Poland 1939 (1941)

Welcome to my blog - daily update!

Feuertaufe - Baptism Of Fire: Luftwaffe in Poland 1939 (1941)