Architecture of Doom - Nazism (1989)

Architecture of Doom - Nazism (1989)

Architecture of Doom - Nazism (1989)
DVDRip | 416 x 320 | .AVI/DivX @ 701 Kbps | 1 h 54 min | 689 MB
Audio: English MP3 128 Kbps, 2 channels | Subs: None
Genre: Documentary, War

THE ARCHITECTURE OF DOOM presents a very different perspective on the Nazi phenomenon: it considers the Nazis' atrocities as a wholly rational extension of a fundamental tenet to beautify the world.
The film argues that a tremendously powerful motivation behind Nazism has long been overlooked. This force was an extreme aesthetic aspiring to return beauty to the world, to counteract the miscegenation and degeneration which had defiled it, through sheer violence. Building on this Nazi cult of the beautiful, THE ARCHITECTURE OF DOOM examines Hitler's eccentric cultural ambitions for the Third Reich, and the profound influence his obsession - and personal failures - with art played in the development of the Nazi party. Its propaganda machine created a climate which made brutality acceptable - and later necessary - to cleanse society, citing such programs as "Action Euthanasia," whereby mentally disturbed Germans were exterminated as a step towards purifying the "Volk." It was in this atmosphere that a bridge between the primitive aesthetic and the final Nazi barbarities was built.
The rise and disastrous consequences of Nazism is still one of the great mysteries of the twentieth century. Although many films describe the symptoms and catastrophic results of the Third Reich, none provides so thought-provoking an examination of its causes as THE ARCHITECTURE OF DOOM.

also You can look my other last: World War II

General
Complete name : Architecture.of.Doom.Nazism.avi
Format : AVI
Format/Info : Audio Video Interleave
File size : 689 MiB
Duration : 1 h 54 min
Overall bit rate mode : Variable
Overall bit rate : 845 kb/s
Writing application : Nandub v1.0rc2
Writing library : Nandub build 1852/release

Video
ID : 0
Format : MPEG-4 Visual
Format settings, BVOP : 1
Format settings, QPel : No
Format settings, GMC : 2 warppoints
Format settings, Matrix : Default (H.263)
Muxing mode : Packed bitstream
Codec ID : DX50
Codec ID/Hint : DivX 5
Duration : 1 h 54 min
Bit rate : 701 kb/s
Width : 416 pixels
Height : 320 pixels
Display aspect ratio : 4:3
Frame rate : 29.970 (30000/1001) FPS
Color space : YUV
Chroma subsampling : 4:2:0
Bit depth : 8 bits
Scan type : Progressive
Compression mode : Lossy
Bits/(Pixel*Frame) : 0.176
Stream size : 571 MiB (83%)
Writing library : DivX 5.0.2 (UTC 2002-05-16)

Audio
ID : 1
Format : MPEG Audio
Format version : Version 1
Format profile : Layer 3
Mode : Joint stereo
Mode extension : MS Stereo
Codec ID : 55
Codec ID/Hint : MP3
Duration : 1 h 54 min
Bit rate mode : Variable
Bit rate : 128 kb/s
Channel(s) : 2 channels
Sampling rate : 48.0 kHz
Compression mode : Lossy
Stream size : 107 MiB (15%)
Alignment : Aligned on interleaves
Interleave, duration : 24 ms (0.72 video frame)
Interleave, preload duration : 438 ms
Writing library : LAME3.92
Encoding settings : -m j -V 4 -q 2 -lowpass 17.5 –abr 128
Screenshots

Architecture of Doom - Nazism (1989)

Architecture of Doom - Nazism (1989)

Architecture of Doom - Nazism (1989)

Architecture of Doom - Nazism (1989)

Welcome to my blog - daily update!

Architecture of Doom - Nazism (1989)