Zerkalo / Mirror (1975) [The Criterion Collection]

Zerkalo / Mirror (1975) [The Criterion Collection]

Zerkalo / Mirror (1975)
BD-Remux | MKV | 1 h 47 min | 28.7 GB | 1920x1080 | AVC@35.0 Mb/s
Русский FLAC@590 kb/s, 1 ch | Русский DTS-HD MA@2752 kb/s, 6 ch
Subs: English, العربية, 中文, Nederlands, Français, Deutsch, עברית, Italiano
Português, Русский, Español, Svenska, Türkçe, 日本語
Genre: Biography, Drama

A dying man in his forties remembers his past. His childhood, his mother, the war, personal moments and things that tell of the recent history of all the Russian nation.



General
Mirror.1975.REPACK.1080p.BluRay.REMUX.AVC.FLAC.1.0-BLURANiUM.mkv
Format : Matroska
Format version : Version 4 / Version 2
File size : 28.7 GB
Duration : 1 h 47 min
Overall bit rate mode : Variable
Overall bit rate : 38.0 Mb/s
Movie name : Mirror (1975)
Encoded date : UTC 2021-07-06 13:46:07
Writing application : mkvmerge v55.0.0 ('Waiting For Space') 64-bit
Writing library : libebml v1.4.2 + libmatroska v1.6.4
IMDB : tt0072443
TMDB : movie/1396

Video
ID : 1
Format : AVC
Format/Info : Advanced Video Codec
Format profile : High@L4.1
Format settings, CABAC : Yes
Format settings, ReFrames : 4 frames
Format settings, GOP : M=3, N=12
Codec ID : V_MPEG4/ISO/AVC
Duration : 1 h 46 min
Bit rate mode : Variable
Bit rate : 35.0 Mb/s
Maximum bit rate : 37.0 Mb/s
Width : 1920 pixels
Height : 1080 pixels
Display aspect ratio : 16:9
Frame rate mode : Constant
Frame rate : 23.976 (24000/1001) FPS
Color space : YUV
Chroma subsampling : 4:2:0
Bit depth : 8 bits
Scan type : Progressive
Bits/(Pixel*Frame) : 0.703
Stream size : 26.1 GB (91%)
Title : MPEG-4 AVC Video / 35667 kbps / 1080p / 23.976 fps / 16:9 / High Profile 4.1
Language : Russian
Default : Yes
Forced : No

Audio #1
ID : 2
Format : FLAC
Format/Info : Free Lossless Audio Codec
Codec ID : A_FLAC
Duration : 1 h 46 min
Bit rate mode : Variable
Bit rate : 590 kb/s
Channel(s) : 1 channel
Channel positions : Front: C
Sampling rate : 48.0 kHz
Frame rate : 11.719 FPS (4096 spf)
Bit depth : 24 bits
Stream size : 451 MB (2%)
Title : Original Mono / FLAC Audio / 1.0 / 48 kHz / 590 kbps / 24-bit
Writing library : libFLAC 1.3.3 (UTC 2019-08-04)
Language : Russian
Default : Yes
Forced : No

Audio #2
ID : 3
Format : DTS
Format/Info : Digital Theater Systems
Format profile : MA / Core
Mode : 16
Format settings, Endianness : Big
Codec ID : A_DTS
Duration : 1 h 47 min
Bit rate mode : Variable / Constant
Bit rate : 2752 kb/s / 1509 kb/s
Channel(s) : 6 channels
Channel positions : Front: L C R, Side: L R, LFE
Sampling rate : 48.0 kHz
Frame rate : 93.750 FPS (512 spf)
Bit depth : 24 bits
Compression mode : Lossless / Lossy
Stream size : 2.07 GB (7%)
Title : Surround Upmix / DTS-HD Master Audio / 5.1 / 48 kHz / 2758 kbps / 24-bit
Language : Russian
Default : No
Forced : No

Text #1
ID : 4
Format : PGS
Muxing mode : zlib
Codec ID : S_HDMV/PGS
Codec ID/Info : Picture based subtitle format used on BDs/HD-DVDs
Duration : 1 h 46 min
Bit rate : 30.2 kb/s
Count of elements : 1693
Stream size : 23.0 MB (0%)
Title : Criterion
Language : English
Default : Yes
Forced : No

Text #2
ID : 5
Format : PGS
Muxing mode : zlib
Codec ID : S_HDMV/PGS
Codec ID/Info : Picture based subtitle format used on BDs/HD-DVDs
Duration : 1 h 46 min
Bit rate : 19.2 kb/s
Count of elements : 1320
Stream size : 14.7 MB (0%)
Title : Artificial Eye
Language : English
Default : No
Forced : No

Text #3
ID : 6
Format : VobSub
Muxing mode : zlib
Codec ID : S_VOBSUB
Codec ID/Info : Picture based subtitle format used on DVDs
Duration : 1 h 46 min
Bit rate : 1864 b/s
Count of elements : 650
Stream size : 1.42 MB (0%)
Language : Arabic
Default : No
Forced : No

Text #4
ID : 7
Format : VobSub
Muxing mode : zlib
Codec ID : S_VOBSUB
Codec ID/Info : Picture based subtitle format used on DVDs
Duration : 1 h 46 min
Bit rate : 2059 b/s
Count of elements : 650
Stream size : 1.56 MB (0%)
Language : Chinese
Default : No
Forced : No

Text #5
ID : 8
Format : PGS
Muxing mode : zlib
Codec ID : S_HDMV/PGS
Codec ID/Info : Picture based subtitle format used on BDs/HD-DVDs
Duration : 1 h 46 min
Bit rate : 18.7 kb/s
Count of elements : 1368
Stream size : 14.2 MB (0%)
Language : Dutch
Default : No
Forced : No

Text #6
ID : 9
Format : PGS
Muxing mode : zlib
Codec ID : S_HDMV/PGS
Codec ID/Info : Picture based subtitle format used on BDs/HD-DVDs
Duration : 1 h 46 min
Bit rate : 20.8 kb/s
Count of elements : 1710
Stream size : 15.8 MB (0%)
Language : French
Default : No
Forced : No

Text #7
ID : 10
Format : VobSub
Muxing mode : zlib
Codec ID : S_VOBSUB
Codec ID/Info : Picture based subtitle format used on DVDs
Duration : 1 h 46 min
Bit rate : 1125 b/s
Count of elements : 650
Stream size : 875 KiB (0%)
Language : German
Default : No
Forced : No

Text #8
ID : 11
Format : VobSub
Muxing mode : zlib
Codec ID : S_VOBSUB
Codec ID/Info : Picture based subtitle format used on DVDs
Duration : 1 h 46 min
Bit rate : 2339 b/s
Count of elements : 650
Stream size : 1.78 MB (0%)
Language : Hebrew
Default : No
Forced : No

Text #9
ID : 12
Format : VobSub
Muxing mode : zlib
Codec ID : S_VOBSUB
Codec ID/Info : Picture based subtitle format used on DVDs
Duration : 1 h 46 min
Bit rate : 1229 b/s
Count of elements : 650
Stream size : 956 KiB (0%)
Language : Italian
Default : No
Forced : No

Text #10
ID : 13
Format : VobSub
Muxing mode : zlib
Codec ID : S_VOBSUB
Codec ID/Info : Picture based subtitle format used on DVDs
Duration : 1 h 46 min
Bit rate : 1693 b/s
Count of elements : 650
Stream size : 1.29 MB (0%)
Language : Japanese
Default : No
Forced : No

Text #11
ID : 14
Format : VobSub
Muxing mode : zlib
Codec ID : S_VOBSUB
Codec ID/Info : Picture based subtitle format used on DVDs
Duration : 1 h 46 min
Bit rate : 1142 b/s
Count of elements : 650
Stream size : 888 KiB (0%)
Language : Portuguese
Default : No
Forced : No

Text #12
ID : 15
Format : VobSub
Muxing mode : zlib
Codec ID : S_VOBSUB
Codec ID/Info : Picture based subtitle format used on DVDs
Duration : 1 h 45 min
Bit rate : 946 b/s
Count of elements : 630
Stream size : 734 KiB (0%)
Language : Russian
Default : No
Forced : No

Text #13
ID : 16
Format : VobSub
Muxing mode : zlib
Codec ID : S_VOBSUB
Codec ID/Info : Picture based subtitle format used on DVDs
Duration : 1 h 46 min
Bit rate : 1151 b/s
Count of elements : 650
Stream size : 896 KiB (0%)
Language : Spanish
Default : No
Forced : No

Text #14
ID : 17
Format : VobSub
Muxing mode : zlib
Codec ID : S_VOBSUB
Codec ID/Info : Picture based subtitle format used on DVDs
Duration : 1 h 46 min
Bit rate : 1019 b/s
Count of elements : 650
Stream size : 793 KiB (0%)
Language : Swedish
Default : No
Forced : No

Text #15
ID : 18
Format : VobSub
Muxing mode : zlib
Codec ID : S_VOBSUB
Codec ID/Info : Picture based subtitle format used on DVDs
Duration : 1 h 41 min
Bit rate : 1162 b/s
Count of elements : 639
Stream size : 867 KiB (0%)
Language : Turkish
Default : No
Forced : No

Menu
00:00:00.000 : en:I Can Speak - en:Я могу говорить
00:06:21.964 : en:Passer-By - en:Прохожий
00:14:33.371 : en:The Fire - en:Пожар
00:17:00.352 : en:Father and Mother - en:Отец и мать
00:22:53.579 : en:The Printing House - en:Типография
00:29:41.255 : en:"Maria Timofeyevna" - en:Марья Тимофеевна
00:35:10.983 : en:Spain - en:Испания
00:43:12.172 : en:From Pushkin's Letter to Chaadayev - en:Из письма Пушкина Чаадаеву
00:51:40.264 : en:Military Instructor - en:Военрук
00:56:45.318 : en:The Grenade - en:Граната
01:03:48.449 : en:On the Hill - en:На горке
01:06:47.210 : en:The Father's Visit - en:Призд
01:09:02.012 : en:The Wife - en:Жена
01:16:40.011 : en:The House - en:Дом
01:21:04.650 : en:A Lady's Little Secret - en:Дамский секретик
01:30:32.635 : en:The Cock - en:Петух
01:39:28.212 : en:Illness - en:Болезнь
01:41:25.537 : en:Epilogue - en:Эпилог



Screenshots

Zerkalo / Mirror (1975) [The Criterion Collection]

Zerkalo / Mirror (1975) [The Criterion Collection]

Zerkalo / Mirror (1975) [The Criterion Collection]

Zerkalo / Mirror (1975) [The Criterion Collection]

Zerkalo / Mirror (1975) [The Criterion Collection]


Come Visit My Blog (•‿•)