X: The Unheard Music (1986)

X: The Unheard Music (1986)

X: The Unheard Music (1986)
BRRip | 720 x 400 | .AVI/XviD @ 1595 Kbps | 1h 24mn | English MP3 192 Kbps, 2 channels | 1.06 GB
Genre: Documentary, Music

This film is a documentary about the personalities in, and the music of, the early 1980's Los Angeles punk band X. There are studio and live performances by the band and interviews with band members; all nicely interspersed with footage of area DJs, record stores, old TV shows and commercials.
Director: W.T. Morgan
Writer: W.T. Morgan
Stars: John Doe, Exene Cervenka, Billy Zoom

More info: IMDB

also You can look my other last: Music-posts

General
Complete name : The.Unheard.Music.1986.avi
Format : AVI
Format/Info : Audio Video Interleave
Format profile : OpenDML
File size : 1.06 GiB
Duration : 1h 24mn
Overall bit rate : 1 803 Kbps
Movie name : RARBG.COM - The.Unheard.Music.1986.BRRip.XviD.MP3-RARBG
Writing application : Lavf56.40.101
Comment : RARBG.COM - The.Unheard.Music.1986.BRRip.XviD.MP3-RARBG

Video
ID : 0
Format : MPEG-4 Visual
Format profile : Simple@L5
Format settings, BVOP : No
Format settings, QPel : No
Format settings, GMC : No warppoints
Format settings, Matrix : Default (H.263)
Codec ID : XVID
Codec ID/Hint : XviD
Duration : 1h 24mn
Bit rate : 1 595 Kbps
Width : 720 pixels
Height : 400 pixels
Display aspect ratio : 16:9
Frame rate : 23.976 fps
Color space : YUV
Chroma subsampling : 4:2:0
Bit depth : 8 bits
Scan type : Progressive
Compression mode : Lossy
Bits/(Pixel*Frame) : 0.231
Stream size : 958 MiB (88%)
Title : RARBG.COM - The.Unheard.Music.1986.BRRip.XviD.MP3-RARBG
Writing library : Lavc56.60.100

Audio
ID : 1
Format : MPEG Audio
Format version : Version 1
Format profile : Layer 3
Mode : Joint stereo
Mode extension : MS Stereo
Codec ID : 55
Codec ID/Hint : MP3
Duration : 1h 24mn
Bit rate mode : Constant
Bit rate : 192 Kbps
Channel(s) : 2 channels
Sampling rate : 48.0 KHz
Compression mode : Lossy
Stream size : 115 MiB (11%)
Alignment : Aligned on interleaves
Interleave, duration : 24 ms (0.58 video frame)
Interleave, preload duration : 24 ms
Title : RARBG.COM - The.Unheard.Music.1986
Screenshots

X: The Unheard Music (1986)

X: The Unheard Music (1986)

X: The Unheard Music (1986)

X: The Unheard Music (1986)

Welcome to my blog - daily update!

X: The Unheard Music (1986)