The Wolf Man (1941)

The Wolf Man (1941)

The Wolf Man (1941)
DVDRip | MKV | AVC 720x480, ~ 1.7 Mbps | 1hr 09mn | 1.02 GB
English \ English(Commentary): AC3, 2 ch, 192 kbps
Subtitles: English, French, Spanish
Genre: Horror
IMDB Rating: 7.4/10 (18.936 votes)


Director: George Waggner
Writers: Curt Siodmak (original screenplay)
Stars: Claude Rains, Warren William, Lon Chaney Jr.

Upon the death of his brother, Larry Talbot returns from America to his ancestral home in Wales. He visits a gypsy camp with village girl Jenny Williams, who is attacked by Bela, a gypsy who has turned into a werewolf. Larry kills the werewolf but is bitten during the fight. Bela's mother tells him that this will cause him to become a werewolf at each full moon. Larry confesses his plight to his unbelieving father, Sir John, who then joins the villagers in a hunt for the wolf. Transformed by the full moon, Larry heads for the forest and a fateful meeting with both Sir John and Gwen Conliffe.

The Wolf Man Legacy Collection contains 4 movies:
- The Wolf Man (1941)
- Werewolf Of London (1935)
- Frankenstein Meets The Wolfman (1943)
- She-Wolf Of London (1946)




General
Unique ID : 232122921284344574135089337095740380729 (0xAEA13F9CE91E5ECB997C79E9E95AD639)
Complete name : M:\WolfManLegacyCln.Dr.E1\WolfManLegacyCln.Dr.E1.mkv
Format : Matroska
Format version : Version 4 / Version 2
File size : 1.02 GiB
Duration : 1 h 9 min
Overall bit rate : 2 086 kb/s
Movie name : Release RSU75
Encoded date : UTC 2017-12-18 03:58:16
Writing application : mkvmerge v6.6.0 ('The Edge Of The In Between') built on Dec 1 2013 17:55:00
Writing library : libebml v1.3.0 + libmatroska v1.4.1

Video
ID : 1
Format : AVC
Format/Info : Advanced Video Codec
Format profile : High@L3
Format settings : CABAC / 4 Ref Frames
Format settings, CABAC : Yes
Format settings, RefFrames : 4 frames
Codec ID : V_MPEG4/ISO/AVC
Duration : 1 h 9 min
Bit rate : 1 700 kb/s
Width : 720 pixels
Height : 480 pixels
Display aspect ratio : 4:3
Frame rate mode : Constant
Frame rate : 24.000 FPS
Color space : YUV
Chroma subsampling : 4:2:0
Bit depth : 8 bits
Scan type : Progressive
Bits/(Pixel*Frame) : 0.205
Stream size : 830 MiB (80%)
Writing library : x264 core 144 r2533 c8a773e
Encoding settings : cabac=1 / ref=4 / deblock=1:0:0 / analyse=0x3:0x113 / me=umh / subme=8 / psy=1 / psy_rd=1.00:0.00 / mixed_ref=1 / me_range=24 / chroma_me=1 / trellis=1 / 8x8dct=1 / cqm=0 / deadzone=21,11 / fast_pskip=1 / chroma_qp_offset=-2 / threads=3 / lookahead_threads=1 / sliced_threads=0 / nr=0 / decimate=1 / interlaced=0 / bluray_compat=0 / constrained_intra=0 / bframes=3 / b_pyramid=0 / b_adapt=2 / b_bias=0 / direct=3 / weightb=1 / open_gop=0 / weightp=2 / keyint=250 / keyint_min=25 / scenecut=40 / intra_refresh=0 / rc_lookahead=40 / rc=abr / mbtree=1 / bitrate=1700 / ratetol=1.0 / qcomp=0.60 / qpmin=10 / qpmax=51 / qpstep=4 / ip_ratio=1.41 / aq=1:1.00
Language : English
Default : Yes
Forced : No

Audio #1
ID : 2
Format : AC-3
Format/Info : Audio Coding 3
Format settings, Endianness : Big
Codec ID : A_AC3
Duration : 1 h 9 min
Bit rate mode : Constant
Bit rate : 192 kb/s
Channel(s) : 2 channels
Channel positions : Front: L R
Sampling rate : 48.0 kHz
Frame rate : 31.250 FPS (1536 SPF)
Bit depth : 16 bits
Compression mode : Lossy
Delay relative to video : -42 ms
Stream size : 96.0 MiB (9%)
Language : English
Service kind : Complete Main
Default : Yes
Forced : No

Audio #2
ID : 3
Format : AC-3
Format/Info : Audio Coding 3
Format settings, Endianness : Big
Codec ID : A_AC3
Duration : 1 h 9 min
Bit rate mode : Constant
Bit rate : 192 kb/s
Channel(s) : 2 channels
Channel positions : Front: L R
Sampling rate : 48.0 kHz
Frame rate : 31.250 FPS (1536 SPF)
Bit depth : 16 bits
Compression mode : Lossy
Delay relative to video : -42 ms
Stream size : 96.0 MiB (9%)
Title : Commentary
Language : English
Service kind : Complete Main
Default : No
Forced : No

Text #1
ID : 4
Format : VobSub
Muxing mode : zlib
Codec ID : S_VOBSUB
Codec ID/Info : Picture based subtitle format used on DVDs
Language : English
Default : No
Forced : No

Text #2
ID : 5
Format : VobSub
Muxing mode : zlib
Codec ID : S_VOBSUB
Codec ID/Info : Picture based subtitle format used on DVDs
Language : Spanish
Default : No
Forced : No

Text #3
ID : 6
Format : VobSub
Muxing mode : zlib
Codec ID : S_VOBSUB
Codec ID/Info : Picture based subtitle format used on DVDs
Language : French
Default : No
Forced : No

Menu
00:00:00.000 : en:Chapter 01
00:01:32.258 : en:Chapter 02
00:02:19.973 : en:Chapter 03
00:04:58.047 : en:Chapter 04
00:08:48.277 : en:Chapter 05
00:12:23.242 : en:Chapter 06
00:19:31.837 : en:Chapter 07
00:25:16.882 : en:Chapter 08
00:28:52.597 : en:Chapter 09
00:31:44.469 : en:Chapter 10
00:35:29.193 : en:Chapter 11
00:39:47.151 : en:Chapter 12
00:48:39.650 : en:Chapter 13
00:54:27.264 : en:Chapter 14
00:58:10.420 : en:Chapter 15
01:02:27.126 : en:Chapter 16
01:05:41.604 : en:Chapter 17
01:09:25.411 : en:Chapter 18




Screenshots (click to enlarge to original size):

The Wolf Man (1941)

The Wolf Man (1941)

The Wolf Man (1941)


The Wolf Man (1941)




–––––––––––––––––––––––––––––––––––––––-
>>> "Horror" <<< OR >>> "Wolf Man Legacy Collection" <<<
–––––––––––––––––––––––––––––––––––––––-
>>> Visit Blog RSU75 Here <<<
–––––––––––––––––––––––––––––––––––––––-