Suomi-Filmi - Winter War (1939-1940) (1988)

Suomi-Filmi - Winter War (1939-1940) (1988)

Suomi-Filmi - Winter War (1939-1940) (1988)
PDTV | 720x576 | .MP4/AVC @ 1700 Kbps | 29 min 3 s | 388 MiB
Audio: English AAC 160 kbps, 2 channels | Subs: English
Genre: Documentary

This is a documentary about the Finnish-Soviet Winter War (Talvisota) of 1939-1940.

It contains rare and never before seen footage from the official film archives (Sota-arkisto) of the Finnish army.

The Winter War was a military conflict between the Soviet Union (USSR) and Finland. It began with a Soviet invasion of Finland on 30 November 1939, three months after the outbreak of World War II, and ended three and a half months later with the Moscow Peace Treaty on 13 March 1940. The League of Nations deemed the attack illegal and expelled the Soviet Union from the organisation.

The conflict began after the Soviets sought to obtain some Finnish territory, demanding among other concessions that Finland cede substantial border territories in exchange for land elsewhere, claiming security reasons—primarily the protection of Leningrad, 32 km (20 mi) from the Finnish border. Finland refused, so the USSR invaded the country. Many sources conclude that the Soviet Union had intended to conquer all of Finland, and use the establishment of the puppet Finnish Communist government and the Molotov–Ribbentrop Pact's secret protocols as evidence of this, while other sources argue against the idea of the full Soviet conquest. Finland repelled Soviet attacks for more than two months and inflicted substantial losses on the invaders while temperatures ranged as low as −43 °C (−45 °F). After the Soviet military reorganised and adopted different tactics, they renewed their offensive in February and overcame Finnish defences.

Hostilities ceased in March 1940 with the signing of the Moscow Peace Treaty. Finland ceded 11 percent of its territory representing 30 percent of its economy to the Soviet Union. Soviet losses were heavy, and the country's international reputation suffered. Soviet gains exceeded their pre-war demands and the USSR received substantial territory along Lake Ladoga and in northern Finland. Finland retained its sovereignty and enhanced its international reputation.

General
Complete name : Winter.War.1939.1940.PDTV.mp4
Format : MPEG-4
Format profile : Base Media / Version 2
Codec ID : mp42 (isom/iso2/avc1/mp41)
File size : 388 MiB
Duration : 29 min 3 s
Overall bit rate mode : Variable
Overall bit rate : 1 868 kb/s

Video
ID : 1
Format : AVC
Format/Info : Advanced Video Codec
Format profile : Main@L3.1
Format settings, CABAC : Yes
Format settings, ReFrames : 4 frames
Codec ID : avc1
Codec ID/Info : Advanced Video Coding
Duration : 29 min 3 s
Bit rate : 1 700 kb/s
Width : 720 pixels
Height : 576 pixels
Display aspect ratio : 4:3
Frame rate mode : Constant
Frame rate : 25.000 FPS
Standard : PAL
Color space : YUV
Chroma subsampling : 4:2:0
Bit depth : 8 bits
Scan type : Progressive
Bits/(Pixel*Frame) : 0.164
Stream size : 353 MiB (91%)
Writing library : x264 core 155 r2893 b00bcaf
Encoding settings : cabac=1 / ref=2 / deblock=1:0:0 / analyse=0x1:0x111 / me=hex / subme=6 / psy=1 / psy_rd=1.00:0.00 / mixed_ref=1 / me_range=16 / chroma_me=1 / trellis=1 / 8x8dct=0 / cqm=0 / deadzone=21,11 / fast_pskip=1 / chroma_qp_offset=-2 / threads=12 / lookahead_threads=2 / sliced_threads=0 / nr=0 / decimate=1 / interlaced=0 / bluray_compat=0 / constrained_intra=0 / bframes=3 / b_pyramid=2 / b_adapt=1 / b_bias=0 / direct=1 / weightb=1 / open_gop=0 / weightp=1 / keyint=250 / keyint_min=25 / scenecut=40 / intra_refresh=0 / rc_lookahead=30 / rc=2pass / mbtree=1 / bitrate=1700 / ratetol=1.0 / qcomp=0.60 / qpmin=0 / qpmax=69 / qpstep=4 / cplxblur=20.0 / qblur=0.5 / vbv_maxrate=14000 / vbv_bufsize=14000 / nal_hrd=none / filler=0 / ip_ratio=1.40 / aq=1:1.00
Encoded date : UTC 2019-10-30 21:28:28
Tagged date : UTC 2019-10-30 21:28:28
Color range : Limited
Color primaries : BT.601 PAL
Transfer characteristics : BT.709
Matrix coefficients : BT.601

Audio
ID : 2
Format : AAC
Format/Info : Advanced Audio Codec
Format profile : LC
Codec ID : 40
Duration : 29 min 3 s
Bit rate mode : Variable
Bit rate : 160 kb/s
Channel(s) : 2 channels
Channel positions : Front: L R
Sampling rate : 48.0 kHz
Frame rate : 46.875 FPS (1024 spf)
Compression mode : Lossy
Stream size : 33.3 MiB (9%)
Title : Stereo / Stereo
Default : Yes
Alternate group : 1
Encoded date : UTC 2019-10-30 21:28:28
Tagged date : UTC 2019-10-30 21:28:28

Text
ID : 3
Format : Timed Text
Muxing mode : sbtl
Codec ID : tx3g
Duration : 28 min 36 s
Bit rate mode : Variable
Bit rate : 55 b/s
Stream size : 11.6 KiB (0%)
Language : English
Default : Yes
Forced : No
Alternate group : 3
Encoded date : UTC 2019-10-30 21:28:28
Tagged date : UTC 2019-10-30 21:28:28


Screenshots:

Suomi-Filmi - Winter War (1939-1940) (1988)

Suomi-Filmi - Winter War (1939-1940) (1988)

Suomi-Filmi - Winter War (1939-1940) (1988)

Suomi-Filmi - Winter War (1939-1940) (1988)