Willard (1971)

Willard (1971)

Willard (1971)
BDRip 720p | MKV | 1280x688 | AVC@6712 kb/s | English DTS@1509 kb/s
Subs: English | 2 channels | 1 h 35 min | 5.46 GB
Genre: Horror, Sci-Fi

A social misfit uses his only friends, his pet rats, to exact revenge on his tormentors.



General
Willard.1971.720p.BluRay.x264-PSYCHD\Willard.1971.720p.BluRay.x264-PSYCHD.mkv
Format : Matroska
Format version : Version 4 / Version 2
File size : 5.46 GiB
Duration : 1 h 35 min
Overall bit rate : 8 223 kb/s
Encoded date : UTC 2010-02-22 21:41:29
Writing application : no_variable_data
Writing library : no_variable_data

Video
ID : 1
Format : AVC
Format/Info : Advanced Video Codec
Format profile : High@L4.1
Format settings, CABAC : Yes
Format settings, ReFrames : 5 frames
Codec ID : V_MPEG4/ISO/AVC
Duration : 1 h 35 min
Bit rate : 6 712 kb/s
Width : 1 280 pixels
Height : 688 pixels
Display aspect ratio : 1.85:1
Frame rate mode : Constant
Frame rate : 23.976 (24000/1001) FPS
Color space : YUV
Chroma subsampling : 4:2:0
Bit depth : 8 bits
Scan type : Progressive
Bits/(Pixel*Frame) : 0.318
Stream size : 4.35 GiB (80%)
Writing library : x264 core 152 r2851 ba24899
Encoding settings : cabac=1 / ref=5 / deblock=1:-3:-3 / analyse=0x3:0x113 / me=umh / subme=8 / psy=1 / psy_rd=1.10:0.00 / mixed_ref=1 / me_range=24 / chroma_me=1 / trellis=2 / 8x8dct=1 / cqm=0 / deadzone=21,11 / fast_pskip=1 / chroma_qp_offset=-2 / threads=21 / lookahead_threads=3 / sliced_threads=0 / nr=0 / decimate=1 / interlaced=0 / bluray_compat=0 / constrained_intra=0 / bframes=3 / b_pyramid=2 / b_adapt=2 / b_bias=0 / direct=3 / weightb=1 / open_gop=0 / weightp=2 / keyint=240 / keyint_min=24 / scenecut=40 / intra_refresh=0 / rc_lookahead=50 / rc=2pass / mbtree=1 / bitrate=6712 / ratetol=1.0 / qcomp=0.60 / qpmin=0 / qpmax=69 / qpstep=4 / cplxblur=20.0 / qblur=0.5 / ip_ratio=1.40 / aq=3:0.75
Default : Yes
Forced : No
Statistics Tags Issue : no_variable_data 1970-01-01 00:00:00 / no_variable_data 2010-02-22 21:41:29
FromStats_BitRate : 6711754
FromStats_Duration : 01:35:06.868000000
FromStats_FrameCount : 136828
FromStats_StreamSize : 4787887036

Audio
ID : 2
Format : DTS
Format/Info : Digital Theater Systems
Mode : 16
Format settings, Endianness : Big
Codec ID : A_DTS
Duration : 1 h 35 min
Bit rate mode : Constant
Bit rate : 1 509 kb/s
Channel(s) : 2 channels
Channel positions : Front: L R
Sampling rate : 48.0 kHz
Frame rate : 93.750 FPS (512 spf)
Bit depth : 24 bits
Compression mode : Lossy
Stream size : 1.00 GiB (18%)
Language : English
Default : Yes
Forced : No
Statistics Tags Issue : no_variable_data 1970-01-01 00:00:00 / no_variable_data 2010-02-22 21:41:29
FromStats_BitRate : 1508999
FromStats_Duration : 01:35:06.891000000
FromStats_FrameCount : 535021
FromStats_StreamSize : 1076462252

Text #1
ID : 3
Format : UTF-8
Codec ID : S_TEXT/UTF8
Codec ID/Info : UTF-8 Plain Text
Language : English
Default : No
Forced : No
Statistics Tags Issue : no_variable_data 1970-01-01 00:00:00 / no_variable_data 2010-02-22 21:41:29
FromStats_BitRate : 39
FromStats_Duration : 01:31:37.951000000
FromStats_FrameCount : 948
FromStats_StreamSize : 27449

Text #2
ID : 4
Format : UTF-8
Codec ID : S_TEXT/UTF8
Codec ID/Info : UTF-8 Plain Text
Title : SDH
Language : English
Default : No
Forced : No
Statistics Tags Issue : no_variable_data 1970-01-01 00:00:00 / no_variable_data 2010-02-22 21:41:29
FromStats_BitRate : 46
FromStats_Duration : 01:34:11.646000000
FromStats_FrameCount : 1087
FromStats_StreamSize : 32660

Menu
00:00:00.000 : en:00:00:00.000
00:07:58.478 : en:00:07:58.478
00:16:00.418 : en:00:16:00.418
00:23:52.848 : en:00:23:52.848
00:31:36.686 : en:00:31:36.686
00:40:15.538 : en:00:40:15.538
00:47:56.457 : en:00:47:56.457
00:54:01.321 : en:00:54:01.321
01:00:27.123 : en:01:00:27.123
01:07:43.643 : en:01:07:43.643
01:18:19.528 : en:01:18:19.528
01:26:28.809 : en:01:26:28.809


BDRip 720p Screenshots

Willard (1971)

Willard (1971)

Willard (1971)

Willard (1971)


Come Visit My Blog (•‿•)