War of the Satellites (1958)

War of the Satellites (1958)

War of the Satellites (1958)
DVDRip | MKV | 766x578 | AVC@2500 kb/s | English AC3@320 kb/s | 2 channels | 1 h 5 min | 1.29 GB
Genre: Horror | Sci-Fi

An "unknown force" declares war against planet Earth when the United Nations disobeys warnings to cease and desist in its attempts at assembling the first satellite in the atmosphere.



General
War of the Satellites 1958 Dvdrip x264-Zuul.mkv
Format : Matroska
Format version : Version 4 / Version 2
File size : 1.30 GiB
Duration : 1 h 5 min
Overall bit rate : 2 824 kb/s
Encoded date : UTC 2018-10-12T17:50:50Z
Writing application : HandBrake 1.1.0 2018040700
Writing library : Lavf57.7.2 / Lavf57.7.2

Video
ID : 1
Format : AVC
Format/Info : Advanced Video Codec
Format profile : Main@L3.1
Format settings, CABAC : Yes
Format settings, ReFrames : 4 frames
Codec ID : V_MPEG4/ISO/AVC
Duration : 1 h 5 min
Bit rate : 2 500 kb/s
Width : 766 pixels
Height : 578 pixels
Display aspect ratio : 4:3
Frame rate mode : Constant
Frame rate : 29.970 (30000/1001) FPS
Color space : YUV
Chroma subsampling : 4:2:0
Bit depth : 8 bits
Scan type : Progressive
Bits/(Pixel*Frame) : 0.188
Stream size : 1.12 GiB (87%)
Writing library : x264 core 155 r2893 b00bcaf
Encoding settings : cabac=1 / ref=3 / deblock=1:0:0 / analyse=0x1:0x111 / me=hex / subme=7 / psy=1 / psy_rd=1.00:0.00 / mixed_ref=1 / me_range=16 / chroma_me=1 / trellis=1 / 8x8dct=0 / cqm=0 / deadzone=21,11 / fast_pskip=1 / chroma_qp_offset=-2 / threads=12 / lookahead_threads=2 / sliced_threads=0 / nr=0 / decimate=1 / interlaced=0 / bluray_compat=0 / constrained_intra=0 / bframes=3 / b_pyramid=2 / b_adapt=1 / b_bias=0 / direct=1 / weightb=1 / open_gop=0 / weightp=2 / keyint=300 / keyint_min=30 / scenecut=40 / intra_refresh=0 / rc_lookahead=40 / rc=2pass / mbtree=1 / bitrate=2500 / ratetol=1.0 / qcomp=0.60 / qpmin=0 / qpmax=69 / qpstep=4 / cplxblur=20.0 / qblur=0.5 / vbv_maxrate=14000 / vbv_bufsize=14000 / nal_hrd=none / filler=0 / ip_ratio=1.40 / aq=1:1.00
Default : Yes
Forced : No
Color range : Limited
Color primaries : BT.601 NTSC
Transfer characteristics : BT.709
Matrix coefficients : BT.601

Audio
ID : 2
Format : AC-3
Format/Info : Audio Coding 3
Mode extension : CM (complete main)
Format settings, Endianness : Big
Codec ID : A_AC3
Duration : 1 h 5 min
Bit rate mode : Constant
Bit rate : 320 kb/s
Channel(s) : 2 channels
Channel positions : Front: L R
Sampling rate : 48.0 kHz
Frame rate : 31.250 FPS (1536 spf)
Bit depth : 16 bits
Compression mode : Lossy
Stream size : 150 MiB (11%)
Title : Stereo
Language : English
Default : Yes
Forced : No

Menu
00:00:00.000 : :Chapter 1
00:10:00.600 : :Chapter 2
00:20:01.200 : :Chapter 3
00:30:01.800 : :Chapter 4
00:40:02.400 : :Chapter 5
00:50:03.000 : :Chapter 6
01:00:03.600 : :Chapter 7



DVDRip Screenshots

War of the Satellites (1958)

War of the Satellites (1958)

War of the Satellites (1958)

War of the Satellites (1958)

War of the Satellites (1958)

War of the Satellites (1958)

War of the Satellites (1958)


Come Visit My Blog (•‿•)