War-Gods of the Deep (1965)

War-Gods of the Deep (1965)

War-Gods of the Deep (1965)
BDRip | MKV | 1280x720 | English | H264 @ 2048 kbps | AC-3 @ 160 kbps | 1 h 24 min | 1.31 GiB
Subtitles: English
Genre: Adventure, Fantasy, Science Fiction

A chance discovery leads American mining engineer Ben Harris and acquaintance Harold to discover a lost city under the sea while searching for their kidnapped friend Jill. Held captive in the underwater city by the tyrannical Captain (Vincent Price), and his crew of former smugglers, the three plot to escape…

3f03a297eea84755899c0585c22c7a34.mkv (1.3 GB)



General
Unique ID : 96376318694801294936116773251084173831 (0x488167601E838C3CE3BC2D0E1883C207)
Complete name : ./3f03a297eea84755899c0585c22c7a34.mkv
Format : Matroska
Format version : Version 4 / Version 2
File size : 1.31 GiB
Duration : 1 h 24 min
Overall bit rate : 2 210 kb/s
Movie name : War.Gods.of.the.Deep.1965.720p.BluRay.x264-x0r
Encoded date : UTC 2015-08-24 14:44:45
Writing application : mkvmerge v7.7.0 ('Six Voices') 64bit built on Mar 1 2015 01:50:05
Writing library : libebml v1.3.1 + libmatroska v1.4.2

Video
ID : 1
Format : AVC
Format/Info : Advanced Video Codec
Format profile : High@L4
Format settings : CABAC / 8 Ref Frames
Format settings, CABAC : Yes
Format settings, RefFrames : 8 frames
Codec ID : V_MPEG4/ISO/AVC
Duration : 1 h 24 min
Bit rate : 2 048 kb/s
Width : 1 280 pixels
Height : 720 pixels
Display aspect ratio : 16:9
Frame rate mode : Constant
Frame rate : 23.976 FPS
Color space : YUV
Chroma subsampling : 4:2:0
Bit depth : 8 bits
Scan type : Progressive
Bits/(Pixel*Frame) : 0.093
Stream size : 1.21 GiB (93%)
Writing library : x264 core 142 r2389 956c8d8
Encoding settings : cabac=1 / ref=8 / deblock=1:-2:-2 / analyse=0x3:0x113 / me=umh / subme=9 / psy=1 / psy_rd=1.00:0.25 / mixed_ref=0 / me_range=48 / chroma_me=1 / trellis=1 / 8x8dct=1 / cqm=0 / deadzone=6,6 / fast_pskip=0 / chroma_qp_offset=-4 / threads=12 / lookahead_threads=1 / sliced_threads=0 / nr=0 / decimate=0 / interlaced=0 / bluray_compat=0 / constrained_intra=0 / bframes=4 / b_pyramid=2 / b_adapt=2 / b_bias=0 / direct=3 / weightb=1 / open_gop=0 / weightp=2 / keyint=240 / keyint_min=24 / scenecut=40 / intra_refresh=0 / rc_lookahead=10 / rc=2pass / mbtree=1 / bitrate=2048 / ratetol=1.0 / qcomp=0.00 / qpmin=0 / qpmax=69 / qpstep=4 / cplxblur=20.0 / qblur=0.5 / vbv_maxrate=20000 / vbv_bufsize=25000 / nal_hrd=none / filler=0 / ip_ratio=1.10 / aq=1:1.00
Language : English
Default : Yes
Forced : No
Color range : Limited
Color primaries : BT.709
Transfer characteristics : BT.709
Matrix coefficients : BT.709

Audio
ID : 2
Format : AC-3
Format/Info : Audio Coding 3
Format settings, Endianness : Big
Codec ID : A_AC3
Duration : 1 h 24 min
Bit rate mode : Constant
Bit rate : 160 kb/s
Channel(s) : 2 channels
Channel positions : Front: L R
Sampling rate : 48.0 kHz
Frame rate : 31.250 FPS (1536 SPF)
Bit depth : 16 bits
Compression mode : Lossy
Delay relative to video : -5 ms
Stream size : 96.8 MiB (7%)
Title : Stereo
Language : English
Service kind : Complete Main
Default : Yes
Forced : No

Text
ID : 3
Format : UTF-8
Codec ID : S_TEXT/UTF8
Codec ID/Info : UTF-8 Plain Text
Duration : 1 h 20 min
Bit rate : 76 b/s
Count of elements : 1024
Stream size : 45.4 KiB (0%)
Language : English
Default : Yes
Forced : No

Menu
00:00:00.000 : :Chapter 1
00:08:25.939 : :Chapter 2
00:18:20.074 : :Chapter 3
00:25:39.430 : :Chapter 4
00:36:14.523 : :Chapter 5
00:46:19.085 : :Chapter 6
00:57:25.584 : :Chapter 7
01:12:30.947 : :Chapter 8





War-Gods of the Deep (1965)


War-Gods of the Deep (1965)


War-Gods of the Deep (1965)


War-Gods of the Deep (1965)


War-Gods of the Deep (1965)