Wagon Master (1950)

Wagon Master (1950)

Wagon Master (1950)
BDRip 720p | MKV | 1 h 25 min | 4.37 GB | 992x720 | AVC@5798 kb/s | English DTS@1509 kb/s, 2 ch
BDRip 1080p | MKV | 1 h 25 min | 8.74 GB | 1488x1080 | AVC@13.1 Mb/s | English DTS@1509 kb/s, 2 ch
Subs: English
Genre: Adventure | Western

Two young drifters guide a Mormon wagon train to the San Juan Valley and encounter cutthroats, Indians, geography, and moral challenges on the journey.



General
Wagon.Master.1950.720p.BluRay.x264-CiNEFiLE.mkv
Format : Matroska
Format version : Version 4 / Version 2
File size : 4.37 GB
Duration : 1 h 25 min
Overall bit rate : 7310 kb/s
Encoded date : UTC 2019-09-08 20:14:53
Writing application : mkvmerge v21.0.0 ('Tardigrades Will Inherit The Earth') 64-bit
Writing library : libebml v1.3.5 + libmatroska v1.4.8

Video
ID : 1
Format : AVC
Format/Info : Advanced Video Codec
Format profile : High@L4.1
Format settings, CABAC : Yes
Format settings, ReFrames : 9 frames
Codec ID : V_MPEG4/ISO/AVC
Duration : 1 h 25 min
Bit rate : 5798 kb/s
Width : 992 pixels
Height : 720 pixels
Display aspect ratio : 1.378
Frame rate mode : Constant
Frame rate : 23.976 (24000/1001) FPS
Color space : YUV
Chroma subsampling : 4:2:0
Bit depth : 8 bits
Scan type : Progressive
Bits/(Pixel*Frame) : 0.339
Stream size : 3.47 GB (79%)
Writing library : x264 core 158 r2984 3759fcb
Encoding settings : cabac=1 / ref=9 / deblock=1:-3:-3 / analyse=0x3:0x113 / me=umh / subme=8 / psy=1 / psy_rd=1.00:0.00 / mixed_ref=1 / me_range=16 / chroma_me=1 / trellis=1 / 8x8dct=1 / cqm=0 / deadzone=21,11 / fast_pskip=0 / chroma_qp_offset=-2 / threads=22 / lookahead_threads=3 / sliced_threads=0 / nr=0 / decimate=1 / interlaced=0 / bluray_compat=0 / constrained_intra=0 / bframes=3 / b_pyramid=2 / b_adapt=1 / b_bias=0 / direct=1 / weightb=1 / open_gop=0 / weightp=2 / keyint=250 / keyint_min=23 / scenecut=40 / intra_refresh=0 / rc_lookahead=40 / rc=2pass / mbtree=1 / bitrate=5798 / ratetol=1.0 / qcomp=0.60 / qpmin=0 / qpmax=69 / qpstep=4 / cplxblur=20.0 / qblur=0.5 / ip_ratio=1.40 / aq=1:1.00
Language : English
Default : Yes
Forced : No

Audio
ID : 2
Format : DTS
Format/Info : Digital Theater Systems
Mode : 16
Format settings, Endianness : Big
Codec ID : A_DTS
Duration : 1 h 25 min
Bit rate mode : Constant
Bit rate : 1509 kb/s
Channel(s) : 2 channels
Channel positions : Front: L R
Sampling rate : 48.0 kHz
Frame rate : 93.750 FPS (512 spf)
Bit depth : 24 bits
Compression mode : Lossy
Stream size : 924 MB (21%)
Language : English
Default : Yes
Forced : No

Text #1
ID : 3
Format : UTF-8
Codec ID : S_TEXT/UTF8
Codec ID/Info : UTF-8 Plain Text
Duration : 1 h 24 min
Bit rate : 52 b/s
Count of elements : 1143
Stream size : 32.9 KiB (0%)
Language : English
Default : No
Forced : No

Text #2
ID : 4
Format : UTF-8
Codec ID : S_TEXT/UTF8
Codec ID/Info : UTF-8 Plain Text
Duration : 1 h 24 min
Bit rate : 53 b/s
Count of elements : 1185
Stream size : 33.5 KiB (0%)
Title : SDH
Language : English
Default : No
Forced : No

Menu
00:00:00.000 : en:00:00:00.000
00:02:59.179 : en:00:02:59.179
00:06:11.788 : en:00:06:11.788
00:11:35.361 : en:00:11:35.361
00:17:49.068 : en:00:17:49.068
00:24:17.456 : en:00:24:17.456
00:29:38.527 : en:00:29:38.527
00:35:05.353 : en:00:35:05.353
00:38:46.407 : en:00:38:46.407
00:42:43.352 : en:00:42:43.352
00:45:55.419 : en:00:45:55.419
00:50:07.630 : en:00:50:07.630
00:54:53.749 : en:00:54:53.749
00:59:18.638 : en:00:59:18.638
01:02:43.718 : en:01:02:43.718
01:07:29.879 : en:01:07:29.879
01:12:25.216 : en:01:12:25.216
01:16:06.687 : en:01:16:06.687
01:20:23.360 : en:01:20:23.360
01:22:51.133 : en:01:22:51.133
01:25:05.434 : en:01:25:05.434


General
Wagon.Master.1950.1080p.BluRay.x264-CiNEFiLE.mkv
Format : Matroska
Format version : Version 4 / Version 2
File size : 8.74 GB
Duration : 1 h 25 min
Overall bit rate : 14.6 Mb/s
Encoded date : UTC 2019-09-08 20:20:36
Writing application : mkvmerge v21.0.0 ('Tardigrades Will Inherit The Earth') 64-bit
Writing library : libebml v1.3.5 + libmatroska v1.4.8

Video
ID : 1
Format : AVC
Format/Info : Advanced Video Codec
Format profile : High@L4.1
Format settings, CABAC : Yes
Format settings, ReFrames : 5 frames
Codec ID : V_MPEG4/ISO/AVC
Duration : 1 h 25 min
Bit rate : 13.1 Mb/s
Width : 1488 pixels
Height : 1080 pixels
Display aspect ratio : 1.378
Frame rate mode : Constant
Frame rate : 23.976 (24000/1001) FPS
Color space : YUV
Chroma subsampling : 4:2:0
Bit depth : 8 bits
Scan type : Progressive
Bits/(Pixel*Frame) : 0.340
Stream size : 7.84 GB (90%)
Writing library : x264 core 158 r2984 3759fcb
Encoding settings : cabac=1 / ref=5 / deblock=1:-3:-3 / analyse=0x3:0x113 / me=umh / subme=8 / psy=1 / psy_rd=1.00:0.00 / mixed_ref=1 / me_range=16 / chroma_me=1 / trellis=2 / 8x8dct=1 / cqm=0 / deadzone=21,11 / fast_pskip=0 / chroma_qp_offset=-2 / threads=24 / lookahead_threads=4 / sliced_threads=0 / nr=0 / decimate=1 / interlaced=0 / bluray_compat=0 / constrained_intra=0 / bframes=3 / b_pyramid=2 / b_adapt=1 / b_bias=0 / direct=1 / weightb=1 / open_gop=0 / weightp=2 / keyint=250 / keyint_min=23 / scenecut=40 / intra_refresh=0 / rc_lookahead=40 / rc=2pass / mbtree=1 / bitrate=13109 / ratetol=1.0 / qcomp=0.60 / qpmin=0 / qpmax=69 / qpstep=4 / cplxblur=20.0 / qblur=0.5 / ip_ratio=1.40 / aq=1:1.00
Language : English
Default : Yes
Forced : No

Audio
ID : 2
Format : DTS
Format/Info : Digital Theater Systems
Mode : 16
Format settings, Endianness : Big
Codec ID : A_DTS
Duration : 1 h 25 min
Bit rate mode : Constant
Bit rate : 1509 kb/s
Channel(s) : 2 channels
Channel positions : Front: L R
Sampling rate : 48.0 kHz
Frame rate : 93.750 FPS (512 spf)
Bit depth : 24 bits
Compression mode : Lossy
Stream size : 924 MB (10%)
Language : English
Default : Yes
Forced : No

Text #1
ID : 3
Format : UTF-8
Codec ID : S_TEXT/UTF8
Codec ID/Info : UTF-8 Plain Text
Duration : 1 h 24 min
Bit rate : 52 b/s
Count of elements : 1143
Stream size : 32.9 KiB (0%)
Language : English
Default : No
Forced : No

Text #2
ID : 4
Format : UTF-8
Codec ID : S_TEXT/UTF8
Codec ID/Info : UTF-8 Plain Text
Duration : 1 h 24 min
Bit rate : 53 b/s
Count of elements : 1185
Stream size : 33.5 KiB (0%)
Title : SDH
Language : English
Default : No
Forced : No

Menu
00:00:00.000 : en:00:00:00.000
00:02:59.179 : en:00:02:59.179
00:06:11.788 : en:00:06:11.788
00:11:35.361 : en:00:11:35.361
00:17:49.068 : en:00:17:49.068
00:24:17.456 : en:00:24:17.456
00:29:38.527 : en:00:29:38.527
00:35:05.353 : en:00:35:05.353
00:38:46.407 : en:00:38:46.407
00:42:43.352 : en:00:42:43.352
00:45:55.419 : en:00:45:55.419
00:50:07.630 : en:00:50:07.630
00:54:53.749 : en:00:54:53.749
00:59:18.638 : en:00:59:18.638
01:02:43.718 : en:01:02:43.718
01:07:29.879 : en:01:07:29.879
01:12:25.216 : en:01:12:25.216
01:16:06.687 : en:01:16:06.687
01:20:23.360 : en:01:20:23.360
01:22:51.133 : en:01:22:51.133
01:25:05.434 : en:01:25:05.434



BDRip 720p Screenshots

Wagon Master (1950)

Wagon Master (1950)

Wagon Master (1950)


BDRip 1080p Screenshots

Wagon Master (1950)

Wagon Master (1950)

Wagon Master (1950)


Come Visit My Blog (•‿•)