Voldtekt / Rape (1971)

Voldtekt / Rape (1971)

Voldtekt / Rape (1971)
DVDRip | MKV | 700 x 576 | AVC @ 2100 Kbps | 97 min | 1.56 Gb
Audio: Norwegian AC3 2.0 @ 192 Kbps | Subs: English, Norwegian (embedded)
Genre: Crime, Drama | Norway

It's winter in a suburb. A housewife is brutally raped. A young woman becomes a victim of attempted rape. The Police tighten noose on Anders, a young road worker who was seen on the site in both cases. The two women think they recognize him in the lineup, and police investigators use all their strength to solve the case. Anders is a common and simple individual. He could be any youth. The meeting with the ongoing investigation and the solid judiciary, forces him out of a seemingly monotonous, habitual life and forces him to react and think.

IMDB 6.5/10 from 61 users

Director: Anja Breien
Writer: Per Blom, Anja Breien
Actors: Svein Sturla Hungnes, Anne Marie Ottersen, Liv Thorsen, Per Carlson
Rated: N/A
Runtime: 97 min

A meticulous look at the legal peeling of a human being in the name of justice, the cold, mundane manner in which egregious violence is processed and dissected by the state, and the human fallibility that makes our systems' best intentions both inadequate and unjust, this film is a procedural document, a half-clinical exploration.

Sensibly, the titular crime is not shown, and the worst of it is not really described; instead, the post-traumatic is the focus, and not on the victims. We get glimpses of them, and their reactions are interjected. But they suffer as much at the hands of process and procedure as the accused, being unserved by the methods used to catch the man who hurt them.

The documentary feel of this is developed largely by a quiet, careful camera watching our principal character, even as it gets intimately close. It almost always feels like an observer and not a storyteller, except in the rare moments it takes on life or stumbles (or perhaps not so unintentional) into something with deep perspective that gives even the dullest facades a semblance of emotional weight, suggesting the grinding, oppressive might of bureaucracy or rote (or both).

– Sally Jane Black (Letterboxd)



Voldtekt / Rape (1971)

Voldtekt / Rape (1971)

Voldtekt / Rape (1971)

Voldtekt / Rape (1971)


Voldtekt / Rape (1971)



General
Unique ID : 185879046979194127935129104612061718591 (0x8BD700942F9ECEA2B8352A447669A83F)
Complete name : I:\HDNLUF037\Rape (Voldtekt) (1971) – Anja Breien.mkv
Format : Matroska
Format version : Version 4 / Version 2
File size : 1.56 GiB
Duration : 1 h 37 min
Overall bit rate : 2 298 kb/s
Encoded date : UTC 2017-08-10 08:48:56
Writing application : mkvmerge v7.7.0 ('Six Voices') 32bit built on Feb 28 2015 23:23:00
Writing library : libebml v1.3.1 + libmatroska v1.4.2

Video
ID : 1
Format : AVC
Format/Info : Advanced Video Codec
Format profile : High@L4.1
Format settings, CABAC : Yes
Format settings, ReFrames : 10 frames
Codec ID : V_MPEG4/ISO/AVC
Duration : 1 h 37 min
Bit rate : 2 100 kb/s
Width : 700 pixels
Height : 576 pixels
Display aspect ratio : 4:3
Original display aspect rat : 4:3
Frame rate mode : Constant
Frame rate : 24.000 FPS
Color space : YUV
Chroma subsampling : 4:2:0
Bit depth : 8 bits
Scan type : Progressive
Bits/(Pixel*Frame) : 0.217
Stream size : 1.42 GiB (91%)
Writing library : x264 core 146 r2538 121396c
Encoding settings : cabac=1 / ref=10 / deblock=1:-3:-3 / analyse=0x3:0x133 / me=umh / subme=9 / psy=1 / psy_rd=1.00:0.15 / mixed_ref=1 / me_range=28 / chroma_me=0 / trellis=2 / 8x8dct=1 / cqm=0 / deadzone=21,11 / fast_pskip=0 / chroma_qp_offset=-3 / threads=3 / lookahead_threads=1 / sliced_threads=0 / nr=0 / decimate=0 / interlaced=0 / bluray_compat=0 / constrained_intra=0 / bframes=16 / b_pyramid=2 / b_adapt=2 / b_bias=0 / direct=3 / weightb=1 / open_gop=0 / weightp=2 / keyint=240 / keyint_min=24 / scenecut=40 / intra_refresh=0 / rc_lookahead=100 / rc=2pass / mbtree=1 / bitrate=2100 / ratetol=3.0 / qcomp=0.60 / qpmin=0 / qpmax=69 / qpstep=4 / cplxblur=20.0 / qblur=0.5 / vbv_maxrate=62500 / vbv_bufsize=78125 / nal_hrd=none / filler=0 / ip_ratio=1.40 / aq=1:1.20
Language : English
Default : Yes
Forced : No

Audio
ID : 2
Format : AC-3
Format/Info : Audio Coding 3
Mode extension : CM (complete main)
Format settings, Endianness : Big
Codec ID : A_AC3
Duration : 1 h 37 min
Bit rate mode : Constant
Bit rate : 192 kb/s
Channel(s) : 2 channels
Channel positions : Front: L R
Sampling rate : 48.0 kHz
Frame rate : 31.250 FPS (1536 spf)
Bit depth : 16 bits
Compression mode : Lossy
Stream size : 133 MiB (8%)
Default : Yes
Forced : No

Text #1
ID : 3
Format : UTF-8
Codec ID : S_TEXT/UTF8
Codec ID/Info : UTF-8 Plain Text
Duration : 1 h 36 min
Bit rate : 43 b/s
Count of elements : 761
Stream size : 31.0 KiB (0%)
Default : Yes
Forced : No

Text #2
ID : 4
Format : VobSub
Muxing mode : zlib
Codec ID : S_VOBSUB
Codec ID/Info : Picture based subtitle format used on DVDs
Duration : 1 h 36 min
Bit rate : 1 871 b/s
Count of elements : 750
Stream size : 1.29 MiB (0%)
Language : Norwegian
Default : No
Forced : No

Text #3
ID : 5
Format : VobSub
Muxing mode : zlib
Codec ID : S_VOBSUB
Codec ID/Info : Picture based subtitle format used on DVDs
Duration : 1 h 36 min
Bit rate : 1 969 b/s
Count of elements : 761
Stream size : 1.36 MiB (0%)
Language : English
Default : No
Forced : No


Many Thanks to Original uploader.


For More Rare Movies Check out my blog!


Download Links :

No Mirrors Please