International Historic Films - Victory of Faith (1933)

International Historic Films - Victory of Faith (1933)

International Historic Films - Victory of Faith (1933)
DVDRip | 720x480 | .MP4/AVC @ 1454 Kbps | 1 h 2 min | 722 MiB
Audio: English AA 159 kbps, 2 channels; | Subs: English, Español
Genre: Documentary

This first propaganda film of Leni Riefenstahl recounts the Nazi Party Rally in Nuremberg from 30 August to 3 September 1933 and celebrates the victory of the Nazis in achieving power when Adolf Hitler assumed the role of Chancellor of Germany in February 1933. 'Der Sieg des Glaubens' is pure Nazi propaganda for the Nazi Party, which funded and promoted the film. The film is of great historic interest because it shows Hitler and the SA leader Ernst Röhm on close and intimate terms, before Röhm was shot on the orders of Hitler during the Night of the Long Knives on 1. July 1934. All known copies of the film were destroyed on Hitler's orders, and it was considered lost until a copy turned up in the 1990's in the United Kingdom. The form of the film is very similar to Riefenstahl’s later and much more expansive film of the 1934 party rally, 'Triumph des Willens' (Triumph of the Will).

General
Complete name : Victory.of.Faith.DVD.mp4
Format : MPEG-4
Format profile : Base Media / Version 2
Codec ID : mp42 (isom/iso2/avc1/mp41)
File size : 722 MiB
Duration : 1 h 2 min
Overall bit rate mode : Variable
Overall bit rate : 1 624 kb/s

Video
ID : 1
Format : AVC
Format/Info : Advanced Video Codec
Format profile : Main@L3.1
Format settings, CABAC : Yes
Format settings, ReFrames : 4 frames
Codec ID : avc1
Codec ID/Info : Advanced Video Coding
Duration : 1 h 2 min
Bit rate : 1 454 kb/s
Width : 720 pixels
Height : 480 pixels
Display aspect ratio : 4:3
Original display aspect ratio : 4:3
Frame rate mode : Constant
Frame rate : 29.970 (30000/1001) FPS
Standard : NTSC
Color space : YUV
Chroma subsampling : 4:2:0
Bit depth : 8 bits
Scan type : Progressive
Bits/(Pixel*Frame) : 0.140
Stream size : 646 MiB (90%)
Writing library : x264 core 155 r2893 b00bcaf
Encoding settings : cabac=1 / ref=2 / deblock=1:0:0 / analyse=0x1:0x111 / me=hex / subme=6 / psy=1 / psy_rd=1.00:0.00 / mixed_ref=1 / me_range=16 / chroma_me=1 / trellis=1 / 8x8dct=0 / cqm=0 / deadzone=21,11 / fast_pskip=1 / chroma_qp_offset=-2 / threads=12 / lookahead_threads=2 / sliced_threads=0 / nr=0 / decimate=1 / interlaced=0 / bluray_compat=0 / constrained_intra=0 / bframes=3 / b_pyramid=2 / b_adapt=1 / b_bias=0 / direct=1 / weightb=1 / open_gop=0 / weightp=1 / keyint=300 / keyint_min=30 / scenecut=40 / intra_refresh=0 / rc_lookahead=30 / rc=crf / mbtree=1 / crf=21.0 / qcomp=0.60 / qpmin=0 / qpmax=69 / qpstep=4 / vbv_maxrate=14000 / vbv_bufsize=14000 / crf_max=0.0 / nal_hrd=none / filler=0 / ip_ratio=1.40 / aq=1:1.00
Encoded date : UTC 2019-08-11 11:42:11
Tagged date : UTC 2019-08-11 11:42:11
Color range : Limited
Color primaries : BT.601 NTSC
Transfer characteristics : BT.709
Matrix coefficients : BT.601
Menus : 5

Audio
ID : 2
Format : AAC
Format/Info : Advanced Audio Codec
Format profile : LC
Codec ID : 40
Duration : 1 h 2 min
Bit rate mode : Variable
Bit rate : 159 kb/s
Channel(s) : 2 channels
Channel positions : Front: L R
Sampling rate : 48.0 kHz
Frame rate : 46.875 FPS (1024 spf)
Compression mode : Lossy
Stream size : 70.8 MiB (10%)
Title : Stereo / Stereo
Language : German
Default : Yes
Alternate group : 1
Encoded date : UTC 2019-08-11 11:42:11
Tagged date : UTC 2019-08-11 11:42:11
Menus : 5

Text #1
ID : 3
Format : mp4s
Codec ID : E0
Duration : 1 h 1 min
Bit rate mode : Variable
Bit rate : 1 710 b/s
Stream size : 776 KiB (0%)
Language : English
Default : Yes
Forced : No
Alternate group : 3
Encoded date : UTC 2019-08-11 11:42:11
Tagged date : UTC 2019-08-11 11:42:11
Menus : 5

Text #2
ID : 4
Format : mp4s
Codec ID : E0
Duration : 1 h 1 min
Bit rate mode : Variable
Bit rate : 1 579 b/s
Stream size : 706 KiB (0%)
Language : Spanish
Default : No
Forced : No
Alternate group : 3
Encoded date : UTC 2019-08-11 11:42:11
Tagged date : UTC 2019-08-11 11:42:11
Menus : 5

Menu
ID : 5
Codec ID : text
Duration : 1 h 2 min
Language : English
Encoded date : UTC 2019-08-11 11:42:11
Tagged date : UTC 2019-08-11 11:42:11
Menu For : 1,2,3,4
00:00:00.000 : Chapter 1
00:00:21.522 : Chapter 2
00:01:48.442 : Chapter 3
00:12:11.864 : Chapter 4
00:14:45.585 : Chapter 5
00:23:26.038 : Chapter 6
00:31:48.540 : Chapter 7
00:38:30.141 : Chapter 8
00:49:49.353 : Chapter 9
01:01:12.035 : Chapter 10
Bit rate mode : VBR


Screenshots:

International Historic Films - Victory of Faith (1933)

International Historic Films - Victory of Faith (1933)

International Historic Films - Victory of Faith (1933)

International Historic Films - Victory of Faith (1933)