War-Time Romance / Voenno-polevoy roman / Военно-полевой роман (1983)

War-Time Romance / Voenno-polevoy roman / Военно-полевой роман (1983)

War-Time Romance / Voenno-polevoy roman / Военно-полевой роман (1983)
DVDRip | MKV | AVC 700x480, ~ 1.7 Mbps | 1hr 26mn | 1.46 GB
Russian (Русский): AC3, 6 ch, 448 kbps \ AC3, 2 ch, 256 kbps
Subtitles: English, Russian (Русский)
Genre: Drama | Romance
IMDB Rating: 7.4/10 (429 votes)


Director: Pyotr Todorovskiy
Writers: Pyotr Todorovskiy
Stars: Nikolay Burlyaev, Natalya Andreychenko, Inna Churikova

This melodrama revolves around the post-war meeting reunion an intelligent front-line officer, now happily married, and a woman street vendor. This encounter reawakens in them submerged feelings of gratitude and tenderness as the officer recalls how they met during the war and what she used to mean to him. Now he learns that she is alone with a small daughter, the girl's father having been killed at the front. Naturally, he seeks to help them but his wife is not so understanding…




General
Unique ID : 180334115346408667912912531591170836362 (0x87AB16579722ABA1B70804C6012F478A)
Complete name : F:\VPR.83.Dr\VPR.83.Dr.mkv
Format : Matroska
Format version : Version 4 / Version 2
File size : 1.46 GiB
Duration : 1 h 26 min
Overall bit rate : 2 412 kb/s
Movie name : Release RSU75
Encoded date : UTC 2019-04-27 04:27:25
Writing application : mkvmerge v6.6.0 ('The Edge Of The In Between') built on Dec 1 2013 17:55:00
Writing library : libebml v1.3.0 + libmatroska v1.4.1

Video
ID : 1
Format : AVC
Format/Info : Advanced Video Codec
Format profile : High@L4.1
Format settings : CABAC / 4 Ref Frames
Format settings, CABAC : Yes
Format settings, ReFrames : 4 frames
Codec ID : V_MPEG4/ISO/AVC
Duration : 1 h 26 min
Bit rate : 1 700 kb/s
Width : 700 pixels
Height : 480 pixels
Display aspect ratio : 1.296
Frame rate mode : Constant
Frame rate : 25.000 FPS
Color space : YUV
Chroma subsampling : 4:2:0
Bit depth : 8 bits
Scan type : Progressive
Bits/(Pixel*Frame) : 0.202
Stream size : 1.01 GiB (69%)
Writing library : x264 core 148 r2643 5c65704
Encoding settings : cabac=1 / ref=4 / deblock=1:0:0 / analyse=0x3:0x113 / me=umh / subme=8 / psy=1 / psy_rd=1.00:0.00 / mixed_ref=1 / me_range=24 / chroma_me=1 / trellis=1 / 8x8dct=1 / cqm=0 / deadzone=21,11 / fast_pskip=1 / chroma_qp_offset=-2 / threads=3 / lookahead_threads=1 / sliced_threads=0 / nr=0 / decimate=1 / interlaced=0 / bluray_compat=0 / constrained_intra=0 / bframes=3 / b_pyramid=0 / b_adapt=2 / b_bias=0 / direct=3 / weightb=1 / open_gop=0 / weightp=2 / keyint=250 / keyint_min=25 / scenecut=40 / intra_refresh=0 / rc_lookahead=40 / rc=abr / mbtree=1 / bitrate=1700 / ratetol=1.0 / qcomp=0.60 / qpmin=10 / qpmax=51 / qpstep=4 / ip_ratio=1.41 / aq=1:1.00
Language : English
Default : Yes
Forced : No

Audio #1
ID : 2
Format : AC-3
Format/Info : Audio Coding 3
Commercial name : Dolby Digital
Codec ID : A_AC3
Duration : 1 h 26 min
Bit rate mode : Constant
Bit rate : 448 kb/s
Channel(s) : 6 channels
Channel layout : L R C LFE Ls Rs
Sampling rate : 48.0 kHz
Frame rate : 31.250 FPS (1536 SPF)
Bit depth : 16 bits
Compression mode : Lossy
Stream size : 278 MiB (19%)
Language : Russian
Service kind : Complete Main
Default : Yes
Forced : No

Audio #2
ID : 3
Format : AC-3
Format/Info : Audio Coding 3
Commercial name : Dolby Digital
Codec ID : A_AC3
Duration : 1 h 26 min
Bit rate mode : Constant
Bit rate : 256 kb/s
Channel(s) : 2 channels
Channel layout : L R
Sampling rate : 48.0 kHz
Frame rate : 31.250 FPS (1536 SPF)
Bit depth : 16 bits
Compression mode : Lossy
Stream size : 159 MiB (11%)
Language : Russian
Service kind : Complete Main
Default : No
Forced : No

Text #1
ID : 4
Format : VobSub
Muxing mode : zlib
Codec ID : S_VOBSUB
Codec ID/Info : Picture based subtitle format used on DVDs
Language : English
Default : Yes
Forced : No

Text #2
ID : 5
Format : VobSub
Muxing mode : zlib
Codec ID : S_VOBSUB
Codec ID/Info : Picture based subtitle format used on DVDs
Language : Russian
Default : No
Forced : No

Menu
00:00:00.066 : en:Chapter 01
00:12:26.312 : en:Chapter 02
00:21:47.072 : en:Chapter 03
00:29:36.541 : en:Chapter 04
00:34:51.856 : en:Chapter 05
00:42:04.388 : en:Chapter 06
00:50:59.523 : en:Chapter 07
00:59:15.718 : en:Chapter 08
01:04:35.538 : en:Chapter 09
01:08:39.782 : en:Chapter 10
01:14:13.715 : en:Chapter 11
01:20:15.377 : en:Chapter 12




Screenshots (click to enlarge to original size):

War-Time Romance / Voenno-polevoy roman / Военно-полевой роман (1983)



–––––––––––––––––––––––––––––––––––––––-
>>> Другие российские и советские фильмы <<< OR >>> "Russian (Русский)" <<<OR >>> "War" <<<
–––––––––––––––––––––––––––––––––––––––-
>>> Visit Blog RSU75 Here <<<
–––––––––––––––––––––––––––––––––––––––-