Twenty Days Without War / Dvadtsat dney bez voyny / Двадцать дней без войны (1976)

Twenty Days Without War / Dvadtsat dney bez voyny / Двадцать дней без войны (1976)

Twenty Days Without War / Dvadtsat dney bez voyny / Двадцать дней без войны (1976)
DVDRip | MKV | AVC 684x404, ~ 1.5 Mbps | 1hr 37mn | 1.45 GB
Russian: AC3, 6 ch, 448 kbps \ AC3, 2 ch, 192 kbps
Subtitles: English
Genre: Drama | Romance | War
IMDB Rating: 7.9/10 (988 votes)


Director: Aleksey German
Writers: Konstantin Simonov
Stars: Yuriy Nikulin, Lyudmila Gurchenko, Aleksey Petrenko

War correspondent Lopatin takes a 20-day-leave from his hard work at the front in 1942. He travels to faraway Tashkent to meet the family of the killed soldier and visit the film set of the screen adaptation of his war-time stories. Lopatin also manages to walk the streets of Tashkent, take part in a factory workers' meeting and have a short-lived love affair. Although with no bombings and fighting, the city dwellers breathe the atmosphere of the ongoing war.




General
Unique ID : 214506892475383298985456758435010636311 (0xA1608655FD0A000BB9CE6AD5F7FCEA17)
Complete name : F:\TwDays.WWar.76.Dr\TwDays.WWar.76.Dr.mkv
Format : Matroska
Format version : Version 4 / Version 2
File size : 1.45 GiB
Duration : 1 h 37 min
Overall bit rate : 2 141 kb/s
Movie name : Release RSU75
Encoded date : UTC 2019-04-27 04:22:38
Writing application : mkvmerge v6.6.0 ('The Edge Of The In Between') built on Dec 1 2013 17:55:00
Writing library : libebml v1.3.0 + libmatroska v1.4.1

Video
ID : 1
Format : AVC
Format/Info : Advanced Video Codec
Format profile : High@L4.1
Format settings : CABAC / 4 Ref Frames
Format settings, CABAC : Yes
Format settings, ReFrames : 4 frames
Codec ID : V_MPEG4/ISO/AVC
Duration : 1 h 37 min
Bit rate : 1 500 kb/s
Width : 684 pixels
Height : 404 pixels
Display aspect ratio : 16:9
Original display aspect rat : 16:9
Frame rate mode : Constant
Frame rate : 25.000 FPS
Color space : YUV
Chroma subsampling : 4:2:0
Bit depth : 8 bits
Scan type : Progressive
Bits/(Pixel*Frame) : 0.217
Stream size : 1 015 MiB (68%)
Writing library : x264 core 148 r2643 5c65704
Encoding settings : cabac=1 / ref=4 / deblock=1:0:0 / analyse=0x3:0x113 / me=umh / subme=8 / psy=1 / psy_rd=1.00:0.00 / mixed_ref=1 / me_range=24 / chroma_me=1 / trellis=1 / 8x8dct=1 / cqm=0 / deadzone=21,11 / fast_pskip=1 / chroma_qp_offset=-2 / threads=3 / lookahead_threads=1 / sliced_threads=0 / nr=0 / decimate=1 / interlaced=0 / bluray_compat=0 / constrained_intra=0 / bframes=3 / b_pyramid=0 / b_adapt=2 / b_bias=0 / direct=3 / weightb=1 / open_gop=0 / weightp=2 / keyint=250 / keyint_min=25 / scenecut=40 / intra_refresh=0 / rc_lookahead=40 / rc=abr / mbtree=1 / bitrate=1500 / ratetol=1.0 / qcomp=0.60 / qpmin=10 / qpmax=51 / qpstep=4 / ip_ratio=1.41 / aq=1:1.00
Language : English
Default : Yes
Forced : No

Audio #1
ID : 2
Format : AC-3
Format/Info : Audio Coding 3
Commercial name : Dolby Digital
Codec ID : A_AC3
Duration : 1 h 37 min
Bit rate mode : Constant
Bit rate : 192 kb/s
Channel(s) : 2 channels
Channel layout : L R
Sampling rate : 48.0 kHz
Frame rate : 31.250 FPS (1536 SPF)
Bit depth : 16 bits
Compression mode : Lossy
Stream size : 134 MiB (9%)
Language : Russian
Service kind : Complete Main
Default : Yes
Forced : No

Audio #2
ID : 3
Format : AC-3
Format/Info : Audio Coding 3
Commercial name : Dolby Digital
Codec ID : A_AC3
Duration : 1 h 37 min
Bit rate mode : Constant
Bit rate : 448 kb/s
Channel(s) : 6 channels
Channel layout : L R C LFE Ls Rs
Sampling rate : 48.0 kHz
Frame rate : 31.250 FPS (1536 SPF)
Bit depth : 16 bits
Compression mode : Lossy
Stream size : 312 MiB (21%)
Language : Russian
Service kind : Complete Main
Default : No
Forced : No

Text
ID : 4
Format : VobSub
Muxing mode : zlib
Codec ID : S_VOBSUB
Codec ID/Info : Picture based subtitle format used on DVDs
Language : English
Default : Yes
Forced : No

Menu
00:00:00.080 : en:Chapter 01
00:00:17.840 : en:Chapter 02
00:06:52.400 : en:Chapter 03
00:09:55.760 : en:Chapter 04
00:20:47.120 : en:Chapter 05
00:27:12.560 : en:Chapter 06
00:30:31.280 : en:Chapter 07
00:40:39.440 : en:Chapter 08
00:54:37.520 : en:Chapter 09
01:03:23.120 : en:Chapter 10
01:09:14.480 : en:Chapter 11
01:17:20.240 : en:Chapter 12
01:29:18.320 : en:Chapter 13




Screenshots (click to enlarge to original size):

Twenty Days Without War / Dvadtsat dney bez voyny / Двадцать дней без войны (1976)

Twenty Days Without War / Dvadtsat dney bez voyny / Двадцать дней без войны (1976)

Twenty Days Without War / Dvadtsat dney bez voyny / Двадцать дней без войны (1976)


Twenty Days Without War / Dvadtsat dney bez voyny / Двадцать дней без войны (1976)



–––––––––––––––––––––––––––––––––––––––-
>>> Другие российские и советские фильмы <<< OR >>> "War" <<<
–––––––––––––––––––––––––––––––––––––––-
>>> Visit Blog RSU75 Here <<<
–––––––––––––––––––––––––––––––––––––––-