Tunes of Glory (1960) [Criterion Collection]

Tunes of Glory (1960) [Criterion Collection]

Tunes of Glory (1960) [Criterion Collection, Spine #225]
BDRip 1080p | MKV | AVC, 1800x1080, ~ 4.0 Mbps | 1hr 47mn | 3.38 GB | English: AC3, 1 ch, 448 kbps
BDRip 720p | MKV | AVC, 1200x720, ~ 2.9 Mbps | 1hr 47mn | 2.40 GB | English: AC3, 1 ch, 256 kbps
Subtitles: English
Genre: Drama
IMDB Rating: 7.6/10 (3.204 votes)


Director: Ronald Neame
Writers: James Kennaway (screenplay), James Kennaway (based on his novel)
Stars: Alec Guinness, John Mills, Susannah York

In Ronald Neame’s Tunes of Glory, the incomparable Alec Guinness plays Jock Sinclair—a whiskey-drinking, up-by-the-bootstraps commanding officer of a peacetime Scottish battalion. A lifetime military man, Sinclair expects respect and loyalty from his men. But when Basil Barrow (John Mills)—an educated, by-the-book scion of a military family—enters the scene as Sinclair’s replacement, the two men engage in a fierce struggle for control of both the battalion and the hearts and minds of its men. Based on the novel by James Kennaway and featuring flawless performances by Guinness and Mills, Tunes of Glory uses the rigid stratification of military life to comment on the institutional contradictions and class hierarchies of English society, making for an unexpectedly moving drama.

Extras:
- None




General
Unique ID : 249917416117469282964201246930482113691 (0xBC0457F1BE262725B077DAB5E9562C9B)
Complete name : F:\TunesOfGlory.1960.Cr.1p\TunesOfGlory.1960.Cr.1p.mkv
Format : Matroska
Format version : Version 4 / Version 2
File size : 3.38 GiB
Duration : 1 h 47 min
Overall bit rate : 4 499 kb/s
Movie name : Release RSU75
Encoded date : UTC 2019-12-21 17:19:46
Writing application : mkvmerge v6.6.0 ('The Edge Of The In Between') built on Dec 1 2013 17:55:00
Writing library : libebml v1.3.0 + libmatroska v1.4.1

Video
ID : 1
Format : AVC
Format/Info : Advanced Video Codec
Format profile : High@L4.1
Format settings : CABAC / 4 Ref Frames
Format settings, CABAC : Yes
Format settings, ReFrames : 4 frames
Codec ID : V_MPEG4/ISO/AVC
Duration : 1 h 47 min
Bit rate : 4 000 kb/s
Width : 1 800 pixels
Height : 1 080 pixels
Display aspect ratio : 5:3
Frame rate mode : Constant
Frame rate : 23.976 (23976/1000) FPS
Color space : YUV
Chroma subsampling : 4:2:0
Bit depth : 8 bits
Scan type : Progressive
Bits/(Pixel*Frame) : 0.086
Stream size : 2.98 GiB (88%)
Writing library : x264 core 148 r2643 5c65704
Encoding settings : cabac=1 / ref=4 / deblock=1:0:0 / analyse=0x3:0x113 / me=umh / subme=8 / psy=1 / psy_rd=1.00:0.00 / mixed_ref=1 / me_range=24 / chroma_me=1 / trellis=1 / 8x8dct=1 / cqm=0 / deadzone=21,11 / fast_pskip=1 / chroma_qp_offset=-2 / threads=3 / lookahead_threads=1 / sliced_threads=0 / nr=0 / decimate=1 / interlaced=0 / bluray_compat=0 / constrained_intra=0 / bframes=3 / b_pyramid=0 / b_adapt=2 / b_bias=0 / direct=3 / weightb=1 / open_gop=0 / weightp=2 / keyint=250 / keyint_min=25 / scenecut=40 / intra_refresh=0 / rc_lookahead=40 / rc=abr / mbtree=1 / bitrate=4000 / ratetol=1.0 / qcomp=0.60 / qpmin=10 / qpmax=51 / qpstep=4 / ip_ratio=1.41 / aq=1:1.00
Language : English
Default : Yes
Forced : No

Audio
ID : 2
Format : AC-3
Format/Info : Audio Coding 3
Commercial name : Dolby Digital
Codec ID : A_AC3
Duration : 1 h 47 min
Bit rate mode : Constant
Bit rate : 448 kb/s
Channel(s) : 1 channel
Channel layout : C
Sampling rate : 44.1 kHz
Frame rate : 28.711 FPS (1536 SPF)
Bit depth : 16 bits
Compression mode : Lossy
Stream size : 345 MiB (10%)
Language : English
Service kind : Complete Main
Default : Yes
Forced : No

Text
ID : 3
Format : PGS
Muxing mode : zlib
Codec ID : S_HDMV/PGS
Codec ID/Info : Picture based subtitle format used on BDs/HD-DVDs
Language : English
Default : Yes
Forced : No

Menu
00:00:00.000 : en:Chapter 01
00:02:48.918 : en:Chapter 02
00:11:08.209 : en:Chapter 03
00:15:25.841 : en:Chapter 04
00:21:30.664 : en:Chapter 05
00:23:50.095 : en:Chapter 06
00:32:08.009 : en:Chapter 07
00:38:01.737 : en:Chapter 08
00:42:12.279 : en:Chapter 09
00:45:37.109 : en:Chapter 10
00:55:27.157 : en:Chapter 11
00:59:50.587 : en:Chapter 12
01:09:54.398 : en:Chapter 13
01:14:50.277 : en:Chapter 14
01:24:18.011 : en:Chapter 15
01:31:08.129 : en:Chapter 16
01:35:17.962 : en:Chapter 17
01:47:04.418 : en:Chapter 18





General
Unique ID : 194963992331881136945022160574632484619 (0x92ACB2F79F753AB586FC72351120DF0B)
Complete name : F:\TunesOfGlory.1960.Cr.7p\TunesOfGlory.1960.Cr.7p.mkv
Format : Matroska
Format version : Version 4 / Version 2
File size : 2.40 GiB
Duration : 1 h 47 min
Overall bit rate : 3 198 kb/s
Movie name : Release RSU75
Encoded date : UTC 2019-12-23 03:47:17
Writing application : mkvmerge v6.6.0 ('The Edge Of The In Between') built on Dec 1 2013 17:55:00
Writing library : libebml v1.3.0 + libmatroska v1.4.1

Video
ID : 1
Format : AVC
Format/Info : Advanced Video Codec
Format profile : High@L4.1
Format settings : CABAC / 4 Ref Frames
Format settings, CABAC : Yes
Format settings, ReFrames : 4 frames
Codec ID : V_MPEG4/ISO/AVC
Duration : 1 h 47 min
Bit rate : 2 900 kb/s
Width : 1 200 pixels
Height : 720 pixels
Display aspect ratio : 5:3
Frame rate mode : Constant
Frame rate : 23.976 (23976/1000) FPS
Color space : YUV
Chroma subsampling : 4:2:0
Bit depth : 8 bits
Scan type : Progressive
Bits/(Pixel*Frame) : 0.140
Stream size : 2.16 GiB (90%)
Writing library : x264 core 148 r2643 5c65704
Encoding settings : cabac=1 / ref=4 / deblock=1:0:0 / analyse=0x3:0x113 / me=umh / subme=8 / psy=1 / psy_rd=1.00:0.00 / mixed_ref=1 / me_range=24 / chroma_me=1 / trellis=1 / 8x8dct=1 / cqm=0 / deadzone=21,11 / fast_pskip=1 / chroma_qp_offset=-2 / threads=3 / lookahead_threads=1 / sliced_threads=0 / nr=0 / decimate=1 / interlaced=0 / bluray_compat=0 / constrained_intra=0 / bframes=3 / b_pyramid=0 / b_adapt=2 / b_bias=0 / direct=3 / weightb=1 / open_gop=0 / weightp=2 / keyint=250 / keyint_min=25 / scenecut=40 / intra_refresh=0 / rc_lookahead=40 / rc=abr / mbtree=1 / bitrate=2900 / ratetol=1.0 / qcomp=0.60 / qpmin=10 / qpmax=51 / qpstep=4 / ip_ratio=1.41 / aq=1:1.00
Language : English
Default : Yes
Forced : No

Audio
ID : 2
Format : AC-3
Format/Info : Audio Coding 3
Commercial name : Dolby Digital
Codec ID : A_AC3
Duration : 1 h 47 min
Bit rate mode : Constant
Bit rate : 256 kb/s
Channel(s) : 1 channel
Channel layout : C
Sampling rate : 44.1 kHz
Frame rate : 28.711 FPS (1536 SPF)
Bit depth : 16 bits
Compression mode : Lossy
Stream size : 197 MiB (8%)
Language : English
Service kind : Complete Main
Default : Yes
Forced : No

Text
ID : 3
Format : PGS
Muxing mode : zlib
Codec ID : S_HDMV/PGS
Codec ID/Info : Picture based subtitle format used on BDs/HD-DVDs
Language : English
Default : Yes
Forced : No

Menu
00:00:00.000 : en:Chapter 01
00:02:48.918 : en:Chapter 02
00:11:08.209 : en:Chapter 03
00:15:25.841 : en:Chapter 04
00:21:30.664 : en:Chapter 05
00:23:50.095 : en:Chapter 06
00:32:08.009 : en:Chapter 07
00:38:01.737 : en:Chapter 08
00:42:12.279 : en:Chapter 09
00:45:37.109 : en:Chapter 10
00:55:27.157 : en:Chapter 11
00:59:50.587 : en:Chapter 12
01:09:54.398 : en:Chapter 13
01:14:50.277 : en:Chapter 14
01:24:18.011 : en:Chapter 15
01:31:08.129 : en:Chapter 16
01:35:17.962 : en:Chapter 17
01:47:04.418 : en:Chapter 18




Screenshots 1080p (click to enlarge to original size):

Tunes of Glory (1960) [Criterion Collection]

Tunes of Glory (1960) [Criterion Collection]

Tunes of Glory (1960) [Criterion Collection]



Screenshots 720p (click to enlarge to original size):

Tunes of Glory (1960) [Criterion Collection]




–––––––––––––––––––––––––––––––––––––––-
>>> "Criterion Collection" <<< OR >>> "BDRip" <<< OR >>> "Drama" <<<
–––––––––––––––––––––––––––––––––––––––-
>>> Visit Blog RSU75 Here <<<
–––––––––––––––––––––––––––––––––––––––-



- "Old Joy (2006) [Spine #1008] (BDRip)"
- "The Story of Temple Drake (1933) [Spine #1006] (Blu-Ray, BDRip)"
- "Cold War / Zimna wojna (2018) [Spine #1005] (Blu-Ray, BDRip)"
- "Now, Voyager (1942) [Spine #1004] (Blu-Ray, BDRip)"
- "All About Eve (1950) [Spine #1003] (Blu-Ray, BDRip)"
- "Betty Blue / 37°2 le matin (1986) [Spine #1002] (DVD, Blu-Ray, BDRip)"
- "The Daytrippers (1996) [Spine #1001] (Blu-Ray, BDRip)"
- "Godzilla: The Showa-Era Films (1954–1975) [Spine #1000] (Blu-Ray, BDRip)"
- "Matewan (1987) [Spine #999] (Blu-Ray, BDRip)"
- "When We Were Kings (1996) [Spine #998] (Blu-Ray, BDRip)"
- "Cluny Brown (1946) [Spine #997] (Blu-Ray, BDRip)"
- "The Circus (1928) [Spine #996] (Blu-Ray, BDRip)"
- "Polyester (1981) [Spine #995] (Blu-Ray, BDRip)"
- "Local Hero (1983) [Spine #994] (DVD, Blu-Ray, BDRip)"
- "The Cloud-Capped Star / Meghe Dhaka Tara (1960) [Spine #993] (Blu-Ray, BDRip, BDRip(HEVC))"
- "Through The Olive Trees / Zire Darakhatan Zeyton (1994) [Spine #992] (Blu-Ray, BDRip)"
- "And Life Goes On / Zendegi Va Digar Hich (1992) [Spine #991] (Blu-Ray, BDRip)"
- "Where is the Friend's Home? / Khane-ye Doust Kodjast? (1987) [Spine #990] (Blu-Ray, BDRip)"
- "The Flavor of Green Tea Over Rice / Ochazuke no aji (1952) [Spine #989] (Blu-Ray, BDRip)"
- "The Inland Sea (1991) [Spine #988] (DVD, Blu-Ray, BDRip)"
- "Klute (1971) [Spine #987] (DVD, Blu-Ray, BDRip)"
- "The Baker's Wife / La Femme du Boulanger (1938) [Spine #986] (DVD, Blu-Ray, BDRip)"
- "Europa Europa (1990) [Spine #985] (DVD, Blu-Ray, BDRip)"
- "Nineteen Eighty-Four (1984) [Spine #984] (DVD, Blu-Ray, BDRip, BDRip(HEVC))"
- "War and Peace / Voyna i mir / Война и мир (1966) [Spine #983] (DVD, Blu-Ray, BDRip)"
- "Hedwig and the Angry Inch (2001) [Spine #982] (DVD, Blu-Ray, BDRip)"
- "Humanity / L'humanité (1999) [Spine #981] (DVD, Blu-Ray, BDRip)"
- "The Life of Jesus / La Vie de Jésus (1997) [Spine #980] (Blu-Ray, BDRip)"
- "Swing Time (1936) [Spine #979] (DVD, Blu-Ray, BDRip, BDRip(HEVC))"
- "One Sings, the Other Doesn't / L'une chante l'autre pas (1977) [Spine #978] (DVD)"
- "Blue Velvet (1986) [Spine #977] (DVD)"
- "Let the Sunshine In / Un beau soleil intérieur (2017) [Spine #976] (Blu-Ray, BDRip)"
- "Funny Games (1997) [Spine #975] (DVD, Blu-Ray, BDRip)"
- "The Heiress (1949) [Spine #974] (DVD, Blu-Ray, BDRip)"
- "My Brilliant Career (1979) [Spine #973] (Blu-Ray, BDRip)"
- "Police Story 2 / Ging chaat goo si juk jaap (1988) [Spine #972] (DVD, Blu-Ray, BDRip)"
- "Police Story / Ging chaat goo si (1985) [Spine #971] (DVD, Blu-Ray, BDRip)"
- "A Face in the Crowd (1957) [Spine #970] (DVD, Blu-Ray, BDRip)"
- "Diamonds of the Night / Démanty noci (1964) [Spine #969] (DVD, Blu-Ray, BDRip(HEVC))"
- "Japón (2002) [Spine #968] (DVD, Blu-Ray, BDRip)"
- "I Wanna Hold Your Hand (1978) [Spine #967] (DVD, Blu-Ray, BDRip)"
- "Detour (1945) [Spine #966] (DVD, Blu-Ray, BDRip)"
- "Wanda (1970) [Spine #965] (DVD, Blu-Ray, BDRip(HEVC))"
- "The Kid Brother (1927) [Spine #964] (Blu-Ray, BDRip, BDRip(HEVC))"
- "To Sleep with Anger (1990) [Spine #963] (Blu-Ray, BDRip)"
- "Death in Venice / Morte a Venezia (1971) [Spine #962] (DVD, Blu-Ray, BDRip)"
- "Shame / Skammen (1968) [Spine #961] (DVD, Blu-Ray, BDRip)"
- "La Vérité (1960) [Spine #960] (DVD, Blu-Ray, BDRip)"
- "A Raisin in the Sun (1961) [Spine #945] (DVD, Blu-Ray, BDRip)"
- "3 Silent Classics by Josef von Sternberg [Spine #528] (BDRip)"
- "Underworld (1927) [Spine #529] (Blu-Ray, BDRip)"
- "The Last Command (1928) [Spine #530] (Blu-Ray, BDRip)"
- "The Docks of New York (1928) [Spine #531] (Blu-Ray, BDRip)"
- "An Angel at My Table (1990) [Spine #301] (Blu-Ray, BDRip, BDRip(HEVC))"
- "Au hasard Balthazar (1966) [Spine #297] (DVD, Blu-Ray, BDRip)"
- "Rainer Werner Fassbinder. The BRD Trilogy [Spine #203] (Blu-Ray, BDRip)"
- "The Marriage of Maria Braun / Die Ehe der Maria Braun (1979) [Spine #204] (Blu-Ray, BDRip)"
- "Veronika Voss / Die Sehnsucht der Veronika Voss (1982) [Spine #205] (Blu-Ray, BDRip)"
- "Lola (1981) [Spine #206] (Blu-Ray, BDRip, BDRip(HEVC))"
- "Häxan: Witchcraft Through the Ages / Häxan (1922) [Spine #134] (Blu-Ray, BDRip)"
- "Sisters (1972) [Spine #89] (DVD, Blu-Ray, BDRip)"