Tsar to Lenin (1937)

Tsar to Lenin (1937)

Tsar to Lenin (1937)
DVDRip | 720x480 | .AVI/XviD @ 1504 Kbps | 1h 3min | 808 MiB
Audio: English MP3 256 kbps, 2 channels | Subs: None
Genre: Documentary

Tsar to Lenin, first released in 1937, ranks among the twentieth century's greatest film documentaries. It presents an extraordinary cinematic account of the Russian Revolution from the mass uprising which overthrew the centuries-old Tsarist regime in February 1917, to the Bolshevik-led insurrection eight months later that established the first socialist workers state, and the final victory in 1921 of the new Soviet regime over counter-revolutionary forces after a three-year-long civil war.
More info


General
Complete name : Tsar.To.Lenin.avi
Format : AVI
Format/Info : Audio Video Interleave
File size : 808 MiB
Duration : 1 h 3 min
Overall bit rate : 1 785 kb/s

Video
ID : 0
Format : AVC
Format/Info : Advanced Video Codec
Format profile : Main@L3
Format settings, CABAC : Yes
Format settings, ReFrames : 1 frame
Codec ID : H264
Duration : 1 h 3 min
Bit rate : 1 504 kb/s
Width : 720 pixels
Height : 480 pixels
Display aspect ratio : 3:2
Frame rate mode : Variable
Frame rate : 29.970 (30000/1001) FPS
Standard : NTSC
Color space : YUV
Chroma subsampling : 4:2:0
Bit depth : 8 bits
Scan type : Progressive
Bits/(Pixel*Frame) : 0.145
Stream size : 686 MiB (85%)
Writing library : x264 core 129
Encoding settings : cabac=1 / ref=1 / deblock=1:0:0 / analyse=0x1:0x131 / me=dia / subme=2 / psy=1 / psy_rd=1.00:0.00 / mixed_ref=0 / me_range=16 / chroma_me=1 / trellis=0 / 8x8dct=0 / cqm=0 / deadzone=21,11 / fast_pskip=1 / chroma_qp_offset=0 / threads=8 / lookahead_threads=1 / sliced_threads=0 / nr=0 / decimate=1 / interlaced=0 / bluray_compat=0 / constrained_intra=0 / bframes=0 / weightp=2 / keyint=250 / keyint_min=25 / scenecut=40 / intra_refresh=0 / rc_lookahead=40 / rc=abr / mbtree=1 / bitrate=1504 / ratetol=1.0 / qcomp=0.60 / qpmin=10 / qpmax=51 / qpstep=4 / ip_ratio=1.41 / aq=1:1.00

Audio
ID : 1
Format : MPEG Audio
Format version : Version 1
Format profile : Layer 3
Mode : Joint stereo
Mode extension : MS Stereo
Codec ID : 55
Codec ID/Hint : MP3
Duration : 1 h 3 min
Bit rate mode : Constant
Bit rate : 256 kb/s
Channel(s) : 2 channels
Sampling rate : 48.0 kHz
Compression mode : Lossy
Stream size : 116 MiB (14%)
Alignment : Aligned on interleaves


Screenshots:

Tsar to Lenin (1937)

Tsar to Lenin (1937)

Tsar to Lenin (1937)

Tsar to Lenin (1937)