Triumph des Willens / Triumph of the Will (1935)

Triumph des Willens / Triumph of the Will (1935)

Triumph des Willens / Triumph of the Will (1935)
720p BluRay | 864 x 720 | .MKV/AVC @ 4132 Kbps | 1 h 50 min | 4.37 GB
Audio: German DTS 1509 Kbps, 2 channels | Subs: English
Genre: Documentary, History, War

The infamous propaganda film of the 1934 Nazi Party rally in Nuremberg, Germany.
Director: Leni Riefenstahl
Writers: Leni Riefenstahl, Walter Ruttmann
Stars: Adolf Hitler, Hermann Göring, Max Amann

More info: IMDB

Related Documentaries:
Triumph of the Will (1935)
The Wonderful, Horrible Life of Leni Riefenstahl (1993)
Wolper Production - The Rise and Fall of the Third Reich (1968)
DC Weapons of War - Propaganda: War of the Mind (2000)


also You can look my other last: World War II

General
Unique ID : 253723414077970721706642642800061584738 (0xBEE15A21AF5D4E9AA7D9858BBB8A1562)
Complete name : Triumph.of.the.Will.1935.mkv
Format : Matroska
Format version : Version 2
File size : 4.37 GiB
Duration : 1 h 50 min
Overall bit rate : 5 640 kb/s
Encoded date : UTC 2016-02-18 02:51:07
Writing application : mkvmerge v5.0.1 ('Es ist Sommer') built on Oct 9 2011 11:55:43
Writing library : libebml v1.2.2 + libmatroska v1.3.0

Video
ID : 1
Format : AVC
Format/Info : Advanced Video Codec
Format profile : High@L4.1
Format settings, CABAC : Yes
Format settings, ReFrames : 5 frames
Muxing mode : Header stripping
Codec ID : V_MPEG4/ISO/AVC
Duration : 1 h 50 min
Bit rate : 4 132 kb/s
Width : 864 pixels
Height : 720 pixels
Display aspect ratio : 1.200
Frame rate mode : Constant
Frame rate : 23.976 FPS
Color space : YUV
Chroma subsampling : 4:2:0
Bit depth : 8 bits
Scan type : Progressive
Bits/(Pixel*Frame) : 0.277
Stream size : 3.11 GiB (71%)
Writing library : x264 core 148 r2638 7599210
Encoding settings : cabac=1 / ref=5 / deblock=1:0:0 / analyse=0x3:0x113 / me=umh / subme=7 / psy=1 / psy_rd=1.00:0.00 / mixed_ref=1 / me_range=16 / chroma_me=1 / trellis=1 / 8x8dct=1 / cqm=0 / deadzone=21,11 / fast_pskip=0 / chroma_qp_offset=-2 / threads=12 / lookahead_threads=2 / sliced_threads=0 / nr=0 / decimate=1 / interlaced=0 / bluray_compat=0 / constrained_intra=0 / bframes=3 / b_pyramid=2 / b_adapt=1 / b_bias=0 / direct=1 / weightb=1 / open_gop=0 / weightp=2 / keyint=250 / keyint_min=23 / scenecut=40 / intra_refresh=0 / rc_lookahead=40 / rc=2pass / mbtree=1 / bitrate=4132 / ratetol=1.0 / qcomp=0.60 / qpmin=0 / qpmax=69 / qpstep=4 / cplxblur=20.0 / qblur=0.5 / ip_ratio=1.40 / aq=1:1.00
Language : English
Default : Yes
Forced : No

Audio
ID : 2
Format : DTS
Format/Info : Digital Theater Systems
Mode : 16
Format settings, Endianness : Big
Muxing mode : Header stripping
Codec ID : A_DTS
Duration : 1 h 50 min
Bit rate mode : Constant
Bit rate : 1 509 kb/s
Channel(s) : 2 channels
Channel positions : Front: L R
Sampling rate : 48.0 kHz
Frame rate : 93.750 FPS (512 spf)
Bit depth : 24 bits
Compression mode : Lossy
Stream size : 1.17 GiB (27%)
Default : Yes
Forced : No

Text
ID : 3
Format : UTF-8
Codec ID : S_TEXT/UTF8
Codec ID/Info : UTF-8 Plain Text
Language : English
Default : Yes
Forced : No
Screenshots

Triumph des Willens / Triumph of the Will (1935)

Triumph des Willens / Triumph of the Will (1935)

Triumph des Willens / Triumph of the Will (1935)

Triumph des Willens / Triumph of the Will (1935)

Triumph des Willens / Triumph of the Will (1935)

Welcome to my blog - daily update!

Triumph des Willens / Triumph of the Will (1935)