Triumph of the Will (1935)

Triumph of the Will (1935)

Triumph of the Will (1935)
DVDRip | 720 x 480 | .AVI/DivX @ 1550 Kbps | 1 h 50 min | 1.36 GB
Audio: English MP3 96.0 Kbps, 2 channels | Subs: None
Genre: Documentary, History, War

The infamous propaganda film of the 1934 Nazi Party rally in Nuremberg, Germany.
Director: Leni Riefenstahl
Writers: Leni Riefenstahl, Walter Ruttmann
Stars: Adolf Hitler, Hermann Göring, Max Amann

More info: IMDB

Related Documentaries:
The Wonderful, Horrible Life of Leni Riefenstahl (1993)
Wolper Production - The Rise and Fall of the Third Reich (1968)
DC Weapons of War - Propaganda: War of the Mind (2000)


also You can look my other last: World War II

General
Complete name : Triumph.Of.The.Will.eng.ger.Triumph.Des.Willens.divx
Format : DivX
Format/Info : Hack of AVI
File size : 1.36 GiB
Duration : 1 h 50 min
Overall bit rate : 1 760 kb/s

Video
ID : 0
Format : MPEG-4 Visual
Format settings, BVOP : Yes
Format settings, QPel : No
Format settings, GMC : No warppoints
Format settings, Matrix : Default (H.263)
Codec ID : DX50
Codec ID/Hint : DivX 5
Duration : 1 h 50 min
Bit rate : 1 550 kb/s
Nominal bit rate : 4 854 kb/s
Width : 720 pixels
Height : 480 pixels
Display aspect ratio : 4:3
Frame rate : 29.970 (30000/1001) FPS
Standard : NTSC
Color space : YUV
Chroma subsampling : 4:2:0
Bit depth : 8 bits
Scan type : Progressive
Compression mode : Lossy
Bits/(Pixel*Frame) : 0.150
Stream size : 1.20 GiB (88%)
Title : Video
Writing library : DivX 2151

Audio #1
ID : 1
Format : MPEG Audio
Format version : Version 1
Format profile : Layer 3
Codec ID : 55
Codec ID/Hint : MP3
Duration : 1 h 50 min
Bit rate mode : Constant
Bit rate : 96.0 kb/s
Channel(s) : 2 channels
Sampling rate : 48.0 kHz
Compression mode : Lossy
Stream size : 75.9 MiB (5%)
Alignment : Split accross interleaves
Interleave, duration : 33 ms (1.00 video frame)
Interleave, preload duration : 500 ms
Title : Audio

Audio #2
ID : 2
Format : MPEG Audio
Format version : Version 1
Format profile : Layer 3
Codec ID : 55
Codec ID/Hint : MP3
Duration : 1 h 50 min
Bit rate mode : Constant
Bit rate : 96.0 kb/s
Channel(s) : 2 channels
Sampling rate : 48.0 kHz
Compression mode : Lossy
Stream size : 75.9 MiB (5%)
Alignment : Split accross interleaves
Interleave, duration : 33 ms (1.00 video frame)
Interleave, preload duration : 500 ms
Title : Audio

Text
ID : 3
Format : DivX Subtitle
Codec ID : DXSB
Codec ID/Info : Subtitle in AVI from DivX networks
Width : 640 characters
Height : 480 characters
Bit depth : 4 bits
Stream size : 55.0 Bytes (0%)
Title : Subtitle
Screenshots

Triumph of the Will (1935)

Triumph of the Will (1935)

Triumph of the Will (1935)

Triumph of the Will (1935)

Triumph of the Will (1935)

Welcome to my blog - daily update!

Triumph of the Will (1935)