Trigger, Jr. (1950)

Trigger, Jr. (1950)

Trigger, Jr. (1950)
BDRip | MKV | 1476x1080 | English | H264 @ 11500 kbps | DTS @ 1509 kbps | 1 h 6 min | 6.07 GiB
Genre: Action, Western

Evil Grant Withers lets a killer horse loose to ruin valuable horses on nearby ranches. He hopes to shake down the ranchers for his "protection". Roy tracks down the bad guys, but is suddenly trapped by them. Peter Miles, a boy terrified of horses, overcomes his fear and rides for help to save the day.

Trigger.Jr.1950.1080p.BluRay.x264.DTS-FGT.mkv (6.1 GB)



General
Unique ID : 334967588278402071328657194449887962929 (0xFC00692E8B42FF8D16BC09E9BE6E2731)
Complete name : ./Trigger Jr 1950 1080p BluRay x264 DTS-FGT/Trigger.Jr.1950.1080p.BluRay.x264.DTS-FGT.mkv
Format : Matroska
Format version : Version 4 / Version 2
File size : 6.07 GiB
Duration : 1 h 6 min
Overall bit rate : 13.0 Mb/s
Movie name : Trigger.Jr.1950.1080p.BluRay.x264.DTS-FGT
Encoded date : UTC 2019-07-04 05:02:46
Writing application : mkvmerge v34.0.0 ('Sight and Seen') 64-bit
Writing library : libebml v1.3.7 + libmatroska v1.5.0
Cover : Yes
Attachments : small_cover_land.jpg / cover.jpg / cover_land.jpg / small_cover.jpg

Video
ID : 1
Format : AVC
Format/Info : Advanced Video Codec
Format profile : High@L4.1
Format settings : CABAC / 4 Ref Frames
Format settings, CABAC : Yes
Format settings, RefFrames : 4 frames
Codec ID : V_MPEG4/ISO/AVC
Duration : 1 h 6 min
Bit rate : 11.5 Mb/s
Width : 1 476 pixels
Height : 1 080 pixels
Display aspect ratio : 4:3
Frame rate mode : Constant
Frame rate : 23.976 (24000/1001) FPS
Color space : YUV
Chroma subsampling : 4:2:0
Bit depth : 8 bits
Scan type : Progressive
Bits/(Pixel*Frame) : 0.301
Stream size : 5.37 GiB (88%)
Title : Trigger.Jr.1950.1080p.BluRay.x264.DTS-FGT
Writing library : x264 core 148 r2795M aaa9aa8
Encoding settings : cabac=1 / ref=4 / deblock=1:-2:-2 / analyse=0x3:0x113 / me=umh / subme=9 / psy=1 / psy_rd=1.00:0.15 / mixed_ref=1 / me_range=16 / chroma_me=1 / trellis=2 / 8x8dct=1 / cqm=0 / deadzone=21,11 / fast_pskip=1 / chroma_qp_offset=-3 / threads=24 / lookahead_threads=3 / sliced_threads=0 / nr=0 / decimate=1 / interlaced=0 / bluray_compat=0 / constrained_intra=0 / bframes=3 / b_pyramid=2 / b_adapt=1 / b_bias=0 / direct=3 / weightb=1 / open_gop=0 / weightp=2 / keyint=250 / keyint_min=25 / scenecut=40 / intra_refresh=0 / rc_lookahead=50 / rc=2pass / mbtree=1 / bitrate=11500 / ratetol=1.0 / qcomp=0.60 / qpmin=0 / qpmax=69 / qpstep=4 / cplxblur=20.0 / qblur=0.5 / vbv_maxrate=31250 / vbv_bufsize=31250 / nal_hrd=none / filler=0 / ip_ratio=1.40 / aq=1:1.00
Language : English
Default : Yes
Forced : No

Audio
ID : 2
Format : DTS
Format/Info : Digital Theater Systems
Mode : 16
Format settings, Endianness : Big
Codec ID : A_DTS
Duration : 1 h 6 min
Bit rate mode : Constant
Bit rate : 1 509 kb/s
Channel(s) : 2 channels
Channel positions : Front: L R
Sampling rate : 48.0 kHz
Frame rate : 93.750 FPS (512 SPF)
Bit depth : 16 bits
Compression mode : Lossy
Stream size : 721 MiB (12%)
Title : Trigger.Jr.1950.1080p.BluRay.x264.DTS-FGT
Language : English
Default : Yes
Forced : No

Menu
00:00:00.000 : en:Chapter 1
00:09:25.606 : en:Chapter 2
00:17:23.584 : en:Chapter 3
00:25:58.557 : en:Chapter 4
00:33:07.694 : en:Chapter 5
00:43:12.631 : en:Chapter 6
00:52:11.378 : en:Chapter 7
01:02:00.717 : en:Chapter 8





Trigger, Jr. (1950)


Trigger, Jr. (1950)


Trigger, Jr. (1950)


Trigger, Jr. (1950)


Trigger, Jr. (1950)