Touch Of Death / Quando Alice ruppe lo specchio (1988)

Touch Of Death / Quando Alice ruppe lo specchio (1988)

Touch Of Death / Quando Alice ruppe lo specchio (1988)
BDRip 720p | MKV | 960x720 | AVC@6622 Kbps | Italian FLAC@358 Kbps (2 ch)
English FLAC@285 Kbps (2 ch) | Subs: English | 1 h 25 min | 4.36 GB
BDRip 1080p | MKV | 1440x1080 | AVC@13.9 Mb/s | Italian FLAC@358 Kbps (2 ch)
English FLAC@285 Kbps (2 ch) | Subs: English | 1 h 25 min | 8.74 GB
Genre: Horror

A moody, middle-aged gigolo kills off women after he gets bored with dating them and uses their body parts for trophies and for consumption.



General
Touch.Of.Death.1988.720p.BluRay.x264-CREEPSHOW\creep-touchofdeath720.mkv
Format : Matroska
Format version : Version 2
File size : 4.36 GiB
Duration : 1 h 25 min
Overall bit rate mode : Variable
Overall bit rate : 7 267 kb/s
Encoded date : UTC 2017-08-28 07:56:26
Writing application : mkvmerge v15.0.0 ('Duel with the Devil') 64-bit
Writing library : libebml v1.3.5 + libmatroska v1.4.5

Video
ID : 1
Format : AVC
Format/Info : Advanced Video Codec
Format profile : High@L4.1
Format settings, CABAC : Yes
Format settings, ReFrames : 5 frames
Codec ID : V_MPEG4/ISO/AVC
Duration : 1 h 25 min
Bit rate : 6 622 kb/s
Width : 960 pixels
Height : 720 pixels
Display aspect ratio : 4:3
Frame rate mode : Constant
Frame rate : 23.976 (24000/1001) FPS
Color space : YUV
Chroma subsampling : 4:2:0
Bit depth : 8 bits
Scan type : Progressive
Bits/(Pixel*Frame) : 0.400
Stream size : 3.98 GiB (91%)
Writing library : x264 core 152 r2851 ba24899
Encoding settings : cabac=1 / ref=5 / deblock=1:-2:-2 / analyse=0x3:0x133 / me=umh / subme=9 / psy=1 / psy_rd=1.00:0.00 / mixed_ref=1 / me_range=16 / chroma_me=1 / trellis=1 / 8x8dct=1 / cqm=0 / deadzone=21,11 / fast_pskip=0 / chroma_qp_offset=-2 / threads=6 / lookahead_threads=1 / sliced_threads=0 / nr=0 / decimate=1 / interlaced=0 / bluray_compat=0 / constrained_intra=0 / bframes=3 / b_pyramid=2 / b_adapt=1 / b_bias=0 / direct=3 / weightb=1 / open_gop=0 / weightp=2 / keyint=240 / keyint_min=23 / scenecut=40 / intra_refresh=0 / rc_lookahead=50 / rc=2pass / mbtree=1 / bitrate=6622 / ratetol=1.0 / qcomp=0.60 / qpmin=0 / qpmax=69 / qpstep=4 / cplxblur=20.0 / qblur=0.5 / vbv_maxrate=62500 / vbv_bufsize=78125 / nal_hrd=none / filler=0 / ip_ratio=1.40 / aq=1:0.70
Default : Yes
Forced : No

Audio #1
ID : 2
Format : FLAC
Format/Info : Free Lossless Audio Codec
Codec ID : A_FLAC
Duration : 1 h 25 min
Bit rate mode : Variable
Bit rate : 358 kb/s
Channel(s) : 2 channels
Channel positions : Front: L R
Sampling rate : 48.0 kHz
Frame rate : 11.719 FPS (4096 spf)
Bit depth : 16 bits
Stream size : 220 MiB (5%)
Writing library : libFLAC 1.2.1 (UTC 2007-09-17)
Language : Italian
Default : Yes
Forced : No

Audio #2
ID : 3
Format : FLAC
Format/Info : Free Lossless Audio Codec
Codec ID : A_FLAC
Duration : 1 h 25 min
Bit rate mode : Variable
Bit rate : 285 kb/s
Channel(s) : 2 channels
Channel positions : Front: L R
Sampling rate : 48.0 kHz
Frame rate : 11.719 FPS (4096 spf)
Bit depth : 16 bits
Stream size : 175 MiB (4%)
Writing library : libFLAC 1.2.1 (UTC 2007-09-17)
Language : English
Default : No
Forced : No

Text
ID : 4
Format : UTF-8
Codec ID : S_TEXT/UTF8
Codec ID/Info : UTF-8 Plain Text
Duration : 1 h 23 min
Bit rate : 38 b/s
Count of elements : 649
Stream size : 23.7 KiB (0%)
Language : English
Default : Yes
Forced : No

Menu
00:00:00.000 : en:00:00:00.000
00:09:31.321 : en:00:09:31.321
00:18:04.000 : en:00:18:04.000
00:27:35.696 : en:00:27:35.696
00:39:07.762 : en:00:39:07.762
00:52:40.949 : en:00:52:40.949
01:06:26.024 : en:01:06:26.024
01:18:13.564 : en:01:18:13.564

General
Touch.Of.Death.1988.1080p.BluRay.x264-CREEPSHOW\creep-touchofdeath1080.mkv
Format : Matroska
Format version : Version 2
File size : 8.74 GiB
Duration : 1 h 25 min
Overall bit rate mode : Variable
Overall bit rate : 14.6 Mb/s
Encoded date : UTC 2017-08-27 23:14:50
Writing application : mkvmerge v15.0.0 ('Duel with the Devil') 64-bit
Writing library : libebml v1.3.5 + libmatroska v1.4.5

Video
ID : 1
Format : AVC
Format/Info : Advanced Video Codec
Format profile : High@L4.1
Format settings, CABAC : Yes
Format settings, ReFrames : 4 frames
Codec ID : V_MPEG4/ISO/AVC
Duration : 1 h 25 min
Bit rate : 13.9 Mb/s
Width : 1 440 pixels
Height : 1 080 pixels
Display aspect ratio : 4:3
Frame rate mode : Constant
Frame rate : 23.976 (24000/1001) FPS
Color space : YUV
Chroma subsampling : 4:2:0
Bit depth : 8 bits
Scan type : Progressive
Bits/(Pixel*Frame) : 0.373
Stream size : 8.35 GiB (96%)
Writing library : x264 core 152 r2851 ba24899
Encoding settings : cabac=1 / ref=4 / deblock=1:-2:-2 / analyse=0x3:0x133 / me=umh / subme=9 / psy=1 / psy_rd=1.00:0.00 / mixed_ref=1 / me_range=16 / chroma_me=1 / trellis=1 / 8x8dct=1 / cqm=0 / deadzone=21,11 / fast_pskip=0 / chroma_qp_offset=-2 / threads=6 / lookahead_threads=1 / sliced_threads=0 / nr=0 / decimate=1 / interlaced=0 / bluray_compat=0 / constrained_intra=0 / bframes=3 / b_pyramid=2 / b_adapt=1 / b_bias=0 / direct=3 / weightb=1 / open_gop=0 / weightp=2 / keyint=240 / keyint_min=23 / scenecut=40 / intra_refresh=0 / rc_lookahead=50 / rc=2pass / mbtree=1 / bitrate=13908 / ratetol=1.0 / qcomp=0.60 / qpmin=0 / qpmax=69 / qpstep=4 / cplxblur=20.0 / qblur=0.5 / vbv_maxrate=62500 / vbv_bufsize=78125 / nal_hrd=none / filler=0 / ip_ratio=1.40 / aq=1:0.70
Default : Yes
Forced : No

Audio #1
ID : 2
Format : FLAC
Format/Info : Free Lossless Audio Codec
Codec ID : A_FLAC
Duration : 1 h 25 min
Bit rate mode : Variable
Bit rate : 358 kb/s
Channel(s) : 2 channels
Channel positions : Front: L R
Sampling rate : 48.0 kHz
Frame rate : 11.719 FPS (4096 spf)
Bit depth : 16 bits
Stream size : 220 MiB (2%)
Writing library : libFLAC 1.2.1 (UTC 2007-09-17)
Language : Italian
Default : Yes
Forced : No

Audio #2
ID : 3
Format : FLAC
Format/Info : Free Lossless Audio Codec
Codec ID : A_FLAC
Duration : 1 h 25 min
Bit rate mode : Variable
Bit rate : 285 kb/s
Channel(s) : 2 channels
Channel positions : Front: L R
Sampling rate : 48.0 kHz
Frame rate : 11.719 FPS (4096 spf)
Bit depth : 16 bits
Stream size : 175 MiB (2%)
Writing library : libFLAC 1.2.1 (UTC 2007-09-17)
Language : English
Default : No
Forced : No

Text
ID : 4
Format : UTF-8
Codec ID : S_TEXT/UTF8
Codec ID/Info : UTF-8 Plain Text
Duration : 1 h 23 min
Bit rate : 38 b/s
Count of elements : 649
Stream size : 23.7 KiB (0%)
Language : English
Default : Yes
Forced : No

Menu
00:00:00.000 : en:00:00:00.000
00:09:31.321 : en:00:09:31.321
00:18:04.000 : en:00:18:04.000
00:27:35.696 : en:00:27:35.696
00:39:07.762 : en:00:39:07.762
00:52:40.949 : en:00:52:40.949
01:06:26.024 : en:01:06:26.024
01:18:13.564 : en:01:18:13.564


BDRip 720p Screenshots

Touch Of Death / Quando Alice ruppe lo specchio (1988)

Touch Of Death / Quando Alice ruppe lo specchio (1988)

Touch Of Death / Quando Alice ruppe lo specchio (1988)


BDRip 1080p Screenshots

Touch Of Death / Quando Alice ruppe lo specchio (1988)

Touch Of Death / Quando Alice ruppe lo specchio (1988)

Touch Of Death / Quando Alice ruppe lo specchio (1988)


Come Visit My Blog (•‿•)