Toto and Cleopatra / Totò e Cleopatra (1963)

Toto and Cleopatra / Totò e Cleopatra (1963)

Toto and Cleopatra / Totò e Cleopatra (1963)
DVDRip | MKV | AVC, 720x436, ~ 1.6 Mbps | 1hr 35mn | 1.22 GB
Italian (Italiano): Dolby AC3, 2 ch, 224 kbps | Subtitle: English
Genre: Comedy
IMDB Rating: 6.2/10 (230 votes)


Director: Fernando Cerchio
Writers: Fernando Cerchio, Bruno Corbucci (as Corbucci)
Stars: Totò, Magali Noël, Franco Sportelli

Mark Antony has a brother-lookalike, Totonno, a sinister slave trader. Totonno secretly replaces Mark Antony in the most delicate moments.



General
Unique ID : 207736126188765474658056115932019190886 (0x9C4885C8D68814678D79BA1702866C66)
Complete name : F:\TotoECleopatra.1963.Dr\TotoECleopatra.1963.Dr.mkv
Format : Matroska
Format version : Version 4 / Version 2
File size : 1.22 GiB
Duration : 1 h 35 min
Overall bit rate : 1 825 kb/s
Movie name : Release RSU75
Encoded date : UTC 2020-01-11 04:18:53
Writing application : mkvmerge v6.6.0 ('The Edge Of The In Between') built on Dec 1 2013 17:55:00
Writing library : libebml v1.3.0 + libmatroska v1.4.1

Video
ID : 1
Format : AVC
Format/Info : Advanced Video Codec
Format profile : High@L4.1
Format settings : CABAC / 4 Ref Frames
Format settings, CABAC : Yes
Format settings, ReFrames : 4 frames
Codec ID : V_MPEG4/ISO/AVC
Duration : 1 h 35 min
Bit rate : 1 600 kb/s
Width : 720 pixels
Height : 436 pixels
Display aspect ratio : 2.35:1
Frame rate mode : Constant
Frame rate : 25.000 FPS
Color space : YUV
Chroma subsampling : 4:2:0
Bit depth : 8 bits
Scan type : Progressive
Bits/(Pixel*Frame) : 0.204
Stream size : 1.04 GiB (86%)
Writing library : x264 core 148 r2643 5c65704
Encoding settings : cabac=1 / ref=4 / deblock=1:0:0 / analyse=0x3:0x113 / me=umh / subme=8 / psy=1 / psy_rd=1.00:0.00 / mixed_ref=1 / me_range=24 / chroma_me=1 / trellis=1 / 8x8dct=1 / cqm=0 / deadzone=21,11 / fast_pskip=1 / chroma_qp_offset=-2 / threads=3 / lookahead_threads=1 / sliced_threads=0 / nr=0 / decimate=1 / interlaced=0 / bluray_compat=0 / constrained_intra=0 / bframes=3 / b_pyramid=0 / b_adapt=2 / b_bias=0 / direct=3 / weightb=1 / open_gop=0 / weightp=2 / keyint=250 / keyint_min=25 / scenecut=40 / intra_refresh=0 / rc_lookahead=40 / rc=abr / mbtree=1 / bitrate=1600 / ratetol=1.0 / qcomp=0.60 / qpmin=10 / qpmax=51 / qpstep=4 / ip_ratio=1.41 / aq=1:1.00
Language : English
Default : Yes
Forced : No

Audio
ID : 2
Format : AC-3
Format/Info : Audio Coding 3
Commercial name : Dolby Digital
Codec ID : A_AC3
Duration : 1 h 35 min
Bit rate mode : Constant
Bit rate : 224 kb/s
Channel(s) : 2 channels
Channel layout : L R
Sampling rate : 48.0 kHz
Frame rate : 31.250 FPS (1536 SPF)
Bit depth : 16 bits
Compression mode : Lossy
Delay relative to video : -80 ms
Stream size : 153 MiB (12%)
Title : Stereo
Language : Italian
Service kind : Complete Main
Default : Yes
Forced : No

Text
ID : 3
Format : VobSub
Muxing mode : zlib
Codec ID : S_VOBSUB
Codec ID/Info : Picture based subtitle format used on DVDs
Language : English
Default : Yes
Forced : No

Menu
00:00:00.080 : en:Chapter 01
00:04:10.640 : en:Chapter 02
00:10:14.240 : en:Chapter 03
00:14:14.360 : en:Chapter 04
00:23:49.520 : en:Chapter 05
00:41:31.400 : en:Chapter 06
00:50:19.400 : en:Chapter 07
00:58:56.240 : en:Chapter 08
01:01:22.640 : en:Chapter 09
01:19:45.560 : en:Chapter 10
01:29:41.360 : en:Chapter 11




Screenshots (click to enlarge to original size):

Toto and Cleopatra / Totò e Cleopatra (1963)






If you like this release please visit my blog
In it you will find "DVD Video", "DVDRip" releases