Time Bandits (1981)

Time Bandits (1981)

Time Bandits (1981)
BDRip 1080p | MKV | 1920x1040 | AVC@8843 kb/s | English DTS@960 kb/s
6 channels | 1 h 56 min | 7.94 GB
Genre: Adventure, Comedy, Fantasy

A young boy accidentally joins a band of time traveling dwarves as they jump from era to era looking for treasure to steal.

IMDB - 1 win & 8 nominations


General
Time.Bandits.1981.1080p.BluRay.x264-VOA\voa-timebandits_1080p_x264.mkv
Format : Matroska
Format version : Version 1
File size : 7.95 GiB
Duration : 1 h 56 min
Overall bit rate : 9 806 kb/s
Encoded date : UTC 2009-06-26 06:04:45
Writing application : mkvmerge v2.4.2 ('Oh My God') built on Jan 18 2009 17:30:28
Writing library : libebml v0.7.7 + libmatroska v0.8.1

Video
ID : 1
Format : AVC
Format/Info : Advanced Video Codec
Format profile : High@L4.1
Format settings, CABAC : Yes
Format settings, ReFrames : 4 frames
Codec ID : V_MPEG4/ISO/AVC
Duration : 1 h 56 min
Bit rate : 8 843 kb/s
Width : 1 920 pixels
Height : 1 040 pixels
Display aspect ratio : 1.85:1
Frame rate mode : Constant
Frame rate : 24.000 FPS
Color space : YUV
Chroma subsampling : 4:2:0
Bit depth : 8 bits
Scan type : Progressive
Bits/(Pixel*Frame) : 0.185
Stream size : 7.01 GiB (88%)
Writing library : x264 core 67 r1165 6841c5e
Encoding settings : cabac=1 / ref=4 / deblock=1:0:0 / analyse=0x3:0x133 / me=umh / subme=7 / psy_rd=1.0:0.0 / mixed_ref=1 / me_range=16 / chroma_me=1 / trellis=1 / 8x8dct=1 / cqm=0 / deadzone=21,11 / chroma_qp_offset=-2 / threads=3 / nr=0 / decimate=1 / mbaff=0 / bframes=3 / b_pyramid=1 / b_adapt=1 / b_bias=0 / direct=1 / wpredb=1 / keyint=250 / keyint_min=25 / scenecut=40 / rc=2pass / bitrate=8843 / ratetol=1.0 / qcomp=0.60 / qpmin=10 / qpmax=51 / qpstep=4 / cplxblur=20.0 / qblur=0.5 / ip_ratio=1.40 / pb_ratio=1.30 / aq=1:1.00
Language : English
Default : Yes
Forced : No

Audio
ID : 2
Format : DTS
Format/Info : Digital Theater Systems
Mode : 16
Format settings, Endianness : Big
Codec ID : A_DTS
Duration : 1 h 56 min
Bit rate mode : Constant
Bit rate : 960 kb/s
Channel(s) : 6 channels
Channel positions : Front: L C R, Side: L R, LFE
Sampling rate : 48.0 kHz
Frame rate : 93.750 FPS (512 spf)
Bit depth : 16 bits
Compression mode : Lossy
Stream size : 797 MiB (10%)
Language : English
Default : Yes
Forced : No


BDRip 1080p Screenshots

Time Bandits (1981)

Time Bandits (1981)

Time Bandits (1981)

Time Bandits (1981)


Come Visit My Blog (•‿•)