Tibet - A Buddhist Trilogy (1979)

Tibet - A Buddhist Trilogy (1979)

Tibet - A Buddhist Trilogy (1979)
DVDRip | 640 x 464 | .AVI/XviD @ 1353 Kbps | 2h 13mn | English AC-3 192 Kbps, 2 channels | 1.45 GB
Genre: Documentary, Culture, Sociopolitical

The Internationally Acclaimed Classic– Now available on DVD for the first time, this documentary was hailed as a masterpiece following its first release in 1979. Digitally re-mastered, with new material and a new commentary, Tibet: A Buddhist Trilogy takes you on an intimate journey deep into the heart of an ancient Buddhist world. Four years in the making and hailed as a cinematic masterpiece in 1979, writer/director Graham Coleman's three-part feature has been unseen for over 20 years. Now, the film has been reworked into a single presentation, complete with digital restoration of the original material and new commentary. Part 1 is an intimate portrait of the Dalai Lama as a spiritual and temporal leader. Part 2 journeys deep into the mystical inner world of monastic life and presents an authentic revelation of tantric Buddhism, with commentaries by the great 20th century master Dudjom Rinpoche. Part 3, photographed in the awesome landscapes of Ladakh, is a meditation on impermanence and the depiction of the monastery's moving ritual response to a death in the community.

also You can look my other last: Culture-posts

General
Complete name : Tibet.A.Buddhist.Trilogy.avi
Format : AVI
Format/Info : Audio Video Interleave
File size : 1.45 GiB
Duration : 2h 13mn
Overall bit rate : 1 555 Kbps
Writing application : VirtualDubMod 1.5.10.2 (build 2540/release)
Writing library : VirtualDubMod build 2540/release

Video
ID : 0
Format : MPEG-4 Visual
Format profile : Advanced Simple@L5
Format settings, BVOP : No
Format settings, QPel : No
Format settings, GMC : No warppoints
Format settings, Matrix : Default (H.263)
Codec ID : XVID
Codec ID/Hint : XviD
Duration : 2h 13mn
Bit rate : 1 353 Kbps
Width : 640 pixels
Height : 464 pixels
Display aspect ratio : 1.379
Frame rate : 25.000 fps
Color space : YUV
Chroma subsampling : 4:2:0
Bit depth : 8 bits
Scan type : Interlaced
Scan order : Bottom Field First
Compression mode : Lossy
Bits/(Pixel*Frame) : 0.182
Stream size : 1.27 GiB (87%)
Writing library : XviD 1.2.0SMP (UTC 2006-01-08)

Audio
ID : 1
Format : AC-3
Format/Info : Audio Coding 3
Mode extension : CM (complete main)
Codec ID : 2000
Duration : 2h 13mn
Bit rate mode : Constant
Bit rate : 192 Kbps
Channel(s) : 2 channels
Channel positions : Front: L R
Sampling rate : 48.0 KHz
Bit depth : 16 bits
Compression mode : Lossy
Stream size : 184 MiB (12%)
Alignment : Split accross interleaves
Interleave, duration : 40 ms (1.00 video frame)
Interleave, preload duration : 500 ms
Screenshots

Tibet - A Buddhist Trilogy (1979)

Tibet - A Buddhist Trilogy (1979)

Tibet - A Buddhist Trilogy (1979)

Tibet - A Buddhist Trilogy (1979)

Tibet - A Buddhist Trilogy (1979)

Tibet - A Buddhist Trilogy (1979)

Welcome to my blog - daily update!

Tibet - A Buddhist Trilogy (1979)