Three Coins in the Fountain (1954)

Three Coins in the Fountain (1954)

Three Coins in the Fountain (1954)
WEBRip 1080p | MKV | 1920x1080 | AVC@13.7 Mb/s | English AC3@448 kb/s
Subs: English | 4 channels | 1 h 41 min | 10.0 GB
Genre: Drama

Three American woman working in Rome, Italy, share a spacious apartment and the desire to find love and marriage, each experiencing a few bumps in their journeys to romance.

IMDB - Won 2 Oscars. Another 3 nominations


General
Unique ID : 212990706626354055988360023984391786961 (0xA03C849A2079C234A73B623D509B11D1)
Complete name : Three.Coins.in.the.Fountain.1954.1080p.WEBRip.DD4.0.x264-SbR\Three.Coins.in.the.Fountain.1954.1080p.WEBRip.DD4.0.x264-SbR.mkv
Format : Matroska
Format version : Version 2
File size : 10.1 GiB
Duration : 1 h 41 min
Overall bit rate mode : Variable
Overall bit rate : 14.2 Mb/s
Encoded date : UTC 2017-02-24 10:17:54
Writing application : mkvmerge v9.9.0 ('Pick Up') 64bit
Writing library : libebml v1.3.4 + libmatroska v1.4.5
Cover : Yes
Attachments : cover.jpg

Video
ID : 1
Format : AVC
Format/Info : Advanced Video Codec
Format profile : High@L4
Format settings, CABAC : Yes
Format settings, ReFrames : 4 frames
Codec ID : V_MPEG4/ISO/AVC
Duration : 1 h 41 min
Bit rate mode : Variable
Bit rate : 13.7 Mb/s
Maximum bit rate : 15.0 Mb/s
Width : 1 920 pixels
Height : 1 080 pixels
Display aspect ratio : 16:9
Frame rate mode : Constant
Frame rate : 23.976 (24000/1001) FPS
Color space : YUV
Chroma subsampling : 4:2:0
Bit depth : 8 bits
Scan type : Progressive
Bits/(Pixel*Frame) : 0.276
Stream size : 9.77 GiB (97%)
Writing library : x264 core 148 r2623 d5b2374
Encoding settings : cabac=1 / ref=4 / deblock=1:-1:-1 / analyse=0x3:0x133 / me=umh / subme=9 / psy=1 / psy_rd=1.00:0.15 / mixed_ref=1 / me_range=24 / chroma_me=1 / trellis=2 / 8x8dct=1 / cqm=0 / deadzone=21,11 / fast_pskip=1 / chroma_qp_offset=-3 / threads=34 / lookahead_threads=5 / sliced_threads=0 / nr=150 / decimate=1 / interlaced=0 / bluray_compat=0 / constrained_intra=0 / bframes=8 / b_pyramid=2 / b_adapt=2 / b_bias=0 / direct=3 / weightb=1 / open_gop=0 / weightp=2 / keyint=120 / keyint_min=61 / scenecut=0 / intra_refresh=0 / rc_lookahead=120 / rc=crf / mbtree=1 / crf=18.0 / qcomp=0.60 / qpmin=0 / qpmax=69 / qpstep=4 / vbv_maxrate=15000 / vbv_bufsize=31250 / crf_max=0.0 / nal_hrd=vbr / filler=0 / ip_ratio=1.40 / aq=3:1.00
Language : English
Default : Yes
Forced : No
Color range : Limited
Color primaries : BT.709
Transfer characteristics : BT.709
Matrix coefficients : BT.709

Audio
ID : 2
Format : AC-3
Format/Info : Audio Coding 3
Mode extension : CM (complete main)
Format settings, Endianness : Big
Codec ID : A_AC3
Duration : 1 h 41 min
Bit rate mode : Constant
Bit rate : 448 kb/s
Channel(s) : 4 channels
Channel positions : Front: L C R, Back: C
Sampling rate : 48.0 kHz
Frame rate : 31.250 FPS (1536 spf)
Bit depth : 16 bits
Compression mode : Lossy
Stream size : 327 MiB (3%)
Language : English
Default : Yes
Forced : No

Text #1
ID : 3
Format : UTF-8
Codec ID : S_TEXT/UTF8
Codec ID/Info : UTF-8 Plain Text
Duration : 1 h 35 min
Bit rate : 71 b/s
Count of elements : 1193
Stream size : 50.1 KiB (0%)
Language : English
Default : No
Forced : No

Text #2
ID : 4
Format : UTF-8
Codec ID : S_TEXT/UTF8
Codec ID/Info : UTF-8 Plain Text
Duration : 1 h 41 min
Bit rate : 70 b/s
Count of elements : 1267
Stream size : 52.6 KiB (0%)
Title : SDH
Language : English
Default : No
Forced : No

Menu
00:00:00.922 : en:01. Three Coins in the Fountain
00:04:00.088 : en:02. Main Titles
00:05:08.955 : en:03. New Friends in an Old City
00:08:19.755 : en:04. Paying Homage to Trevi
00:09:47.788 : en:05. The Office Work Day
00:15:13.455 : en:06. The Predatory Prince
00:20:01.755 : en:07. Pinches, Parties and a Palazzo
00:23:17.788 : en:08. No Brakes in Rome
00:26:20.622 : en:09. An Invitation to Fly
00:29:35.089 : en:10. Georgio's Wish, Trevi's Promise
00:35:56.123 : en:11. A Waterway Wonderland
00:40:39.423 : en:12. Office Policies
00:48:39.123 : en:13. An Artful Ruse
00:57:21.590 : en:14. Playing to the Prince
01:07:15.057 : en:15. Confessions of Love and Deceit
01:10:27.924 : en:16. Love's Failure and a Proposal
01:19:24.257 : en:17. Planning His Demise
01:30:51.390 : en:18. Druken Truths
01:34:38.556 : en:19. A Man's Right to Lie
01:38:11.057 : en:20. Three Coins in the Fountain (Reprise)


WEBRip 1080p Screenshots

Three Coins in the Fountain (1954)

Three Coins in the Fountain (1954)

Three Coins in the Fountain (1954)

Three Coins in the Fountain (1954)


Come Visit My Blog (•‿•)