Three Days of the Condor (1975) [Remastered]

Three Days of the Condor (1975) [Remastered]

Three Days of the Condor (1975)
BRRip 720p | MP4 | 1 h 57 min | 1.42 GB | 1280x536 | AVC@1500 kb/s | English AAC@224 kb/s, 2 ch
BRRip 1080p | MP4 | 1 h 57 min | 2.24 GB | 1920x804 | AVC@2500 kb/s | English AAC@224 kb/s, 2 ch
BDRip 1080p | MKV | 1 h 57 min | 10.4 GB | 1920x804 | AVC@11.5 Mb/s | English DTS@1152 kb/s, 6 ch
BDRip 1080p | MKV | 1 h 57 min | 12.5 GB | 1920x804 | AVC@11.5 Mb/s | English DTS-HD MA@3736 kb/s, 6 ch
Subs: English, (Deutsch, French 12.5 GB)
Genre: Mystery, Thriller

A bookish CIA researcher finds all his co-workers dead, and must outwit those responsible until he figures out who he can really trust.

IMDB - Nominated for 1 Oscar. Another 6 wins & 3 nominations.


General
Three.Days.of.the.Condor.1975.REMASTERED.720p.BluRay.H264.AAC.mp4
Format : MPEG-4
Format profile : Base Media
Codec ID : isom (isom/iso2/avc1/mp41)
File size : 1.42 GB
Duration : 1 h 57 min
Overall bit rate : 1731 kb/s
Encoded date : UTC 2020-11-20 07:15:15
Tagged date : UTC 2020-11-20 07:15:15
Writing application : Lavf58.20.100

Video
ID : 1
Format : AVC
Format/Info : Advanced Video Codec
Format profile : High@L4.1
Format settings, CABAC : Yes
Format settings, ReFrames : 4 frames
Codec ID : avc1
Codec ID/Info : Advanced Video Coding
Duration : 1 h 57 min
Bit rate : 1500 kb/s
Width : 1280 pixels
Height : 536 pixels
Display aspect ratio : 2.40:1
Frame rate mode : Constant
Frame rate : 24.000 FPS
Color space : YUV
Chroma subsampling : 4:2:0
Bit depth : 8 bits
Scan type : Progressive
Bits/(Pixel*Frame) : 0.091
Stream size : 1.23 GB (87%)
Writing library : x264 core 152 r2851M ba24899
Encoding settings : cabac=1 / ref=4 / deblock=1:-1:-1 / analyse=0x3:0x113 / me=umh / subme=9 / psy=1 / psy_rd=1.00:0.15 / mixed_ref=1 / me_range=24 / chroma_me=1 / trellis=2 / 8x8dct=1 / cqm=0 / deadzone=21,11 / fast_pskip=1 / chroma_qp_offset=-3 / threads=16 / lookahead_threads=4 / sliced_threads=0 / nr=0 / decimate=1 / interlaced=0 / bluray_compat=0 / constrained_intra=0 / bframes=3 / b_pyramid=2 / b_adapt=2 / b_bias=0 / direct=3 / weightb=1 / open_gop=0 / weightp=2 / keyint=250 / keyint_min=25 / scenecut=40 / intra_refresh=0 / rc_lookahead=50 / rc=2pass / mbtree=1 / bitrate=1500 / ratetol=1.0 / qcomp=0.60 / qpmin=0 / qpmax=69 / qpstep=4 / cplxblur=20.0 / qblur=0.5 / vbv_maxrate=31250 / vbv_bufsize=31250 / nal_hrd=none / filler=0 / ip_ratio=1.40 / aq=3:1.00
Encoded date : UTC 2020-11-20 07:15:15
Tagged date : UTC 2020-11-20 07:15:15

Audio
ID : 2
Format : AAC
Format/Info : Advanced Audio Codec
Format profile : LC
Codec ID : 40
Duration : 1 h 57 min
Bit rate mode : Constant
Bit rate : 224 kb/s
Channel(s) : 2 channels
Channel(s)_Original : 6 channels
Channel positions : Front: L C R, Side: L R, LFE
Sampling rate : 48.0 kHz
Frame rate : 46.875 FPS (1024 spf)
Compression mode : Lossy
Stream size : 188 MB (13%)
Language : English
Default : Yes
Alternate group : 1
Encoded date : UTC 2020-11-20 07:15:15
Tagged date : UTC 2020-11-20 07:15:15


General
Three.Days.of.the.Condor.1975.REMASTERED.1080p.BluRay.H264.AAC.mp4
Format : MPEG-4
Format profile : Base Media
Codec ID : isom (isom/iso2/avc1/mp41)
File size : 2.24 GB
Duration : 1 h 57 min
Overall bit rate : 2731 kb/s
Encoded date : UTC 2020-11-20 08:25:06
Tagged date : UTC 2020-11-20 08:25:06
Writing application : Lavf58.20.100

Video
ID : 1
Format : AVC
Format/Info : Advanced Video Codec
Format profile : High@L4.1
Format settings, CABAC : Yes
Format settings, ReFrames : 4 frames
Codec ID : avc1
Codec ID/Info : Advanced Video Coding
Duration : 1 h 57 min
Bit rate : 2500 kb/s
Width : 1920 pixels
Height : 804 pixels
Display aspect ratio : 2.40:1
Frame rate mode : Constant
Frame rate : 24.000 FPS
Color space : YUV
Chroma subsampling : 4:2:0
Bit depth : 8 bits
Scan type : Progressive
Bits/(Pixel*Frame) : 0.067
Stream size : 2.05 GB (92%)
Writing library : x264 core 152 r2851M ba24899
Encoding settings : cabac=1 / ref=4 / deblock=1:-1:-1 / analyse=0x3:0x113 / me=umh / subme=9 / psy=1 / psy_rd=1.00:0.15 / mixed_ref=1 / me_range=24 / chroma_me=1 / trellis=2 / 8x8dct=1 / cqm=0 / deadzone=21,11 / fast_pskip=1 / chroma_qp_offset=-3 / threads=16 / lookahead_threads=4 / sliced_threads=0 / nr=0 / decimate=1 / interlaced=0 / bluray_compat=0 / constrained_intra=0 / bframes=3 / b_pyramid=2 / b_adapt=2 / b_bias=0 / direct=3 / weightb=1 / open_gop=0 / weightp=2 / keyint=250 / keyint_min=25 / scenecut=40 / intra_refresh=0 / rc_lookahead=50 / rc=2pass / mbtree=1 / bitrate=2500 / ratetol=1.0 / qcomp=0.60 / qpmin=0 / qpmax=69 / qpstep=4 / cplxblur=20.0 / qblur=0.5 / vbv_maxrate=31250 / vbv_bufsize=31250 / nal_hrd=none / filler=0 / ip_ratio=1.40 / aq=3:1.00
Encoded date : UTC 2020-11-20 08:25:06
Tagged date : UTC 2020-11-20 08:25:06

Audio
ID : 2
Format : AAC
Format/Info : Advanced Audio Codec
Format profile : LC
Codec ID : 40
Duration : 1 h 57 min
Bit rate mode : Constant
Bit rate : 224 kb/s
Channel(s) : 2 channels
Channel(s)_Original : 6 channels
Channel positions : Front: L C R, Side: L R, LFE
Sampling rate : 48.0 kHz
Frame rate : 46.875 FPS (1024 spf)
Compression mode : Lossy
Stream size : 188 MB (8%)
Language : English
Default : Yes
Alternate group : 1
Encoded date : UTC 2020-11-20 08:25:06
Tagged date : UTC 2020-11-20 08:25:06


General
Three.Days.of.the.Condor.1975.REMASTERED.1080p.BluRay.x264.DTS-FGT.mkv
Format : Matroska
Format version : Version 4 / Version 2
File size : 10.4 GB
Duration : 1 h 57 min
Overall bit rate : 12.7 Mb/s
Movie name : Three.Days.of.the.Condor.1975.REMASTERED.1080p.BluRay.x264.DTS-FGT
Encoded date : UTC 2020-11-20 09:37:34
Writing application : mkvmerge v49.0.0 ('Sick Of Losing Soulmates') 64-bit
Writing library : libebml v1.4.0 + libmatroska v1.6.1
Cover : Yes
Attachments : small_cover.jpg / small_cover_land.jpg / cover.jpg / cover_land.jpg

Video
ID : 1
Format : AVC
Format/Info : Advanced Video Codec
Format profile : High@L4.1
Format settings, CABAC : Yes
Format settings, ReFrames : 4 frames
Codec ID : V_MPEG4/ISO/AVC
Duration : 1 h 57 min
Bit rate : 11.5 Mb/s
Width : 1920 pixels
Height : 804 pixels
Display aspect ratio : 2.40:1
Frame rate mode : Constant
Frame rate : 24.000 FPS
Color space : YUV
Chroma subsampling : 4:2:0
Bit depth : 8 bits
Scan type : Progressive
Bits/(Pixel*Frame) : 0.310
Stream size : 9.43 GB (91%)
Title : Three.Days.of.the.Condor.1975.REMASTERED.1080p.BluRay.x264.DTS-FGT
Writing library : x264 core 148 r2748 97eaef2
Encoding settings : cabac=1 / ref=4 / deblock=1:-2:-2 / analyse=0x3:0x113 / me=umh / subme=9 / psy=1 / psy_rd=1.00:0.15 / mixed_ref=1 / me_range=16 / chroma_me=1 / trellis=2 / 8x8dct=1 / cqm=0 / deadzone=21,11 / fast_pskip=1 / chroma_qp_offset=-3 / threads=72 / lookahead_threads=3 / sliced_threads=0 / nr=0 / decimate=1 / interlaced=0 / bluray_compat=0 / constrained_intra=0 / bframes=3 / b_pyramid=2 / b_adapt=1 / b_bias=0 / direct=3 / weightb=1 / open_gop=0 / weightp=2 / keyint=250 / keyint_min=25 / scenecut=40 / intra_refresh=0 / rc_lookahead=50 / rc=2pass / mbtree=1 / bitrate=11500 / ratetol=1.0 / qcomp=0.60 / qpmin=0 / qpmax=69 / qpstep=4 / cplxblur=20.0 / qblur=0.5 / vbv_maxrate=31250 / vbv_bufsize=31250 / nal_hrd=none / filler=0 / ip_ratio=1.40 / aq=1:1.00
Language : English
Default : Yes
Forced : No

Audio
ID : 2
Format : DTS
Format/Info : Digital Theater Systems
Mode : 16
Format settings, Endianness : Big
Codec ID : A_DTS
Duration : 1 h 57 min
Bit rate mode : Constant
Bit rate : 1152 kb/s
Channel(s) : 6 channels
Channel positions : Front: L C R, Side: L R, LFE
Sampling rate : 48.0 kHz
Frame rate : 93.750 FPS (512 spf)
Bit depth : 24 bits
Compression mode : Lossy
Stream size : 968 MB (9%)
Title : Three.Days.of.the.Condor.1975.REMASTERED.1080p.BluRay.x264.DTS-FGT
Language : English
Default : Yes
Forced : No

Text #1
ID : 3
Format : UTF-8
Codec ID : S_TEXT/UTF8
Codec ID/Info : UTF-8 Plain Text
Duration : 8 s 162 ms
Bit rate : 81 b/s
Count of elements : 3
Stream size : 83.0 Bytes (0%)
Title : English-FORCED-SRT
Language : English
Default : Yes
Forced : Yes

Text #2
ID : 4
Format : UTF-8
Codec ID : S_TEXT/UTF8
Codec ID/Info : UTF-8 Plain Text
Duration : 1 h 56 min
Bit rate : 36 b/s
Count of elements : 851
Stream size : 31.2 KiB (0%)
Title : English-SRT
Language : English
Default : No
Forced : No

Menu
00:00:00.000 : en:Chapter 01
00:11:12.666 : en:Chapter 02
00:20:17.250 : en:Chapter 03
00:28:03.583 : en:Chapter 04
00:38:25.250 : en:Chapter 05
00:52:29.583 : en:Chapter 06
01:00:09.208 : en:Chapter 07
01:14:33.208 : en:Chapter 08
01:18:54.333 : en:Chapter 09
01:28:23.416 : en:Chapter 10
01:36:32.833 : en:Chapter 11
01:51:08.208 : en:Chapter 12


General
Three.Days.of.the.Condor.1975.REMASTERED.1080p.BluRay.x264.DTS-HD.MA.5.1-FGT.mkv
Format : Matroska
Format version : Version 4 / Version 2
File size : 12.5 GB
Duration : 1 h 57 min
Overall bit rate : 15.3 Mb/s
Movie name : Three.Days.of.the.Condor.1975.REMASTERED.1080p.BluRay.x264.DTS-HD.MA.5.1-FGT
Encoded date : UTC 2020-11-20 09:35:48
Writing application : mkvmerge v49.0.0 ('Sick Of Losing Soulmates') 64-bit
Writing library : libebml v1.4.0 + libmatroska v1.6.1
Original source medium : Blu-ray
Cover : Yes
Attachments : small_cover.jpg / small_cover_land.jpg / cover.jpg / cover_land.jpg

Video
ID : 1
Format : AVC
Format/Info : Advanced Video Codec
Format profile : High@L4.1
Format settings, CABAC : Yes
Format settings, ReFrames : 4 frames
Codec ID : V_MPEG4/ISO/AVC
Duration : 1 h 57 min
Bit rate : 11.5 Mb/s
Width : 1920 pixels
Height : 804 pixels
Display aspect ratio : 2.40:1
Frame rate mode : Constant
Frame rate : 24.000 FPS
Color space : YUV
Chroma subsampling : 4:2:0
Bit depth : 8 bits
Scan type : Progressive
Bits/(Pixel*Frame) : 0.310
Stream size : 9.43 GB (75%)
Title : Three.Days.of.the.Condor.1975.REMASTERED.1080p.BluRay.x264.DTS-HD.MA.5.1-FGT
Writing library : x264 core 148 r2748 97eaef2
Encoding settings : cabac=1 / ref=4 / deblock=1:-2:-2 / analyse=0x3:0x113 / me=umh / subme=9 / psy=1 / psy_rd=1.00:0.15 / mixed_ref=1 / me_range=16 / chroma_me=1 / trellis=2 / 8x8dct=1 / cqm=0 / deadzone=21,11 / fast_pskip=1 / chroma_qp_offset=-3 / threads=72 / lookahead_threads=3 / sliced_threads=0 / nr=0 / decimate=1 / interlaced=0 / bluray_compat=0 / constrained_intra=0 / bframes=3 / b_pyramid=2 / b_adapt=1 / b_bias=0 / direct=3 / weightb=1 / open_gop=0 / weightp=2 / keyint=250 / keyint_min=25 / scenecut=40 / intra_refresh=0 / rc_lookahead=50 / rc=2pass / mbtree=1 / bitrate=11500 / ratetol=1.0 / qcomp=0.60 / qpmin=0 / qpmax=69 / qpstep=4 / cplxblur=20.0 / qblur=0.5 / vbv_maxrate=31250 / vbv_bufsize=31250 / nal_hrd=none / filler=0 / ip_ratio=1.40 / aq=1:1.00
Language : English
Default : Yes
Forced : No

Audio
ID : 2
ID in the original source medium : 4353 (0x1101)
Format : DTS
Format/Info : Digital Theater Systems
Format profile : MA / Core
Mode : 16
Format settings, Endianness : Big
Codec ID : A_DTS
Duration : 1 h 57 min
Bit rate mode : Variable / Constant
Bit rate : 3736 kb/s / 1152 kb/s
Channel(s) : 6 channels
Channel positions : Front: L C R, Side: L R, LFE
Sampling rate : 48.0 kHz
Frame rate : 93.750 FPS (512 spf)
Bit depth : 24 bits
Compression mode : Lossless / Lossy
Stream size : 3.07 GB (24%)
Title : Three.Days.of.the.Condor.1975.REMASTERED.1080p.BluRay.x264.DTS-HD.MA.5.1-FGT
Language : English
Default : Yes
Forced : No

Text #1
ID : 3
Format : UTF-8
Codec ID : S_TEXT/UTF8
Codec ID/Info : UTF-8 Plain Text
Duration : 8 s 162 ms
Bit rate : 81 b/s
Count of elements : 3
Stream size : 83.0 Bytes (0%)
Title : English-FORCED-SRT
Language : English
Default : Yes
Forced : Yes

Text #2
ID : 4
Format : UTF-8
Codec ID : S_TEXT/UTF8
Codec ID/Info : UTF-8 Plain Text
Duration : 1 h 56 min
Bit rate : 36 b/s
Count of elements : 851
Stream size : 31.2 KiB (0%)
Title : English-SRT
Language : English
Default : No
Forced : No

Text #3
ID : 5
ID in the original source medium : 4608 (0x1200)
Format : PGS
Muxing mode : zlib
Codec ID : S_HDMV/PGS
Codec ID/Info : Picture based subtitle format used on BDs/HD-DVDs
Duration : 1 h 55 min
Bit rate : 19.7 kb/s
Count of elements : 2168
Stream size : 16.2 MB (0%)
Title : German-PGS
Language : German
Default : No
Forced : No

Text #4
ID : 6
ID in the original source medium : 4609 (0x1201)
Format : PGS
Muxing mode : zlib
Codec ID : S_HDMV/PGS
Codec ID/Info : Picture based subtitle format used on BDs/HD-DVDs
Duration : 1 h 56 min
Bit rate : 16.6 kb/s
Count of elements : 2468
Stream size : 13.8 MB (0%)
Title : French-PGS
Language : French
Default : No
Forced : No

Menu
00:00:00.000 : en:Chapter 01
00:11:12.666 : en:Chapter 02
00:20:17.250 : en:Chapter 03
00:28:03.583 : en:Chapter 04
00:38:25.250 : en:Chapter 05
00:52:29.583 : en:Chapter 06
01:00:09.208 : en:Chapter 07
01:14:33.208 : en:Chapter 08
01:18:54.333 : en:Chapter 09
01:28:23.416 : en:Chapter 10
01:36:32.833 : en:Chapter 11
01:51:08.208 : en:Chapter 12



BRRip 720p Screenshots

Three Days of the Condor (1975) [Remastered]

Three Days of the Condor (1975) [Remastered]

Three Days of the Condor (1975) [Remastered]


BRRip 1080p Screenshots

Three Days of the Condor (1975) [Remastered]

Three Days of the Condor (1975) [Remastered]

Three Days of the Condor (1975) [Remastered]


BDRip 1080p Screenshots

8264027
8264028
8264029

BDRip 1080p (DTS-HD MA) Screenshots

8264037
8264036
8264035

Come Visit My Blog (•‿•)