The Complete Thin Man Collection (1934-1947)

The Complete Thin Man Collection (1934-1947)

The Thin Man (1934)
DVDRip | MKV | 1hr 30mn | AVC, ~1,7 Mbps | 720x480 | 1.33 GB
English \ French: AC3, 1 ch, 192 kbps
Subtitle: English, French, Spanish, Portugues
Genre: Comedy, Crime, Mystery
IMDB Rating: 8.1/10 (21.586 votes)


Director: W.S. Van Dyke
Writers: Albert Hackett, Frances Goodrich
Stars: William Powell, Myrna Loy, Maureen O'Sullivan

After a four year absence, one time detective Nick Charles returns to New York with his new wife Nora and their dog, Asta. Nick re-connects with many of his old cronies, several of whom are eccentric characters, to say the least. He's also approached by Dorothy Wynant whose inventor father Clyde Wynant is suspected of murdering her father's mistress (his former secretary ).. Her father had left on a planned trip some months before and she has had no contact with him. Nick isn't all that keen on resuming his former profession but egged-on by wife Nora, who thinks this all very exciting, he agrees to help out. He solves the case, announcing the identity of the killer at a dinner party for all of the suspects.




General
Unique ID : 253168324183648486079151162890510088278 (0xBE7672163885D843A570C3D0C3AF3856)
Complete name : M:\ThnMn.Cllctn.E1\ThnMn.Cllctn.E1.mkv
Format : Matroska
Format version : Version 4 / Version 2
File size : 1.33 GiB
Duration : 1 h 30 min
Overall bit rate : 2 092 kb/s
Movie name : Release RSU75
Encoded date : UTC 2017-04-06 12:32:59
Writing application : mkvmerge v6.6.0 ('The Edge Of The In Between') built on Dec 1 2013 17:55:00
Writing library : libebml v1.3.0 + libmatroska v1.4.1

Video
ID : 1
Format : AVC
Format/Info : Advanced Video Codec
Format profile : High@L3
Format settings, CABAC : Yes
Format settings, ReFrames : 4 frames
Codec ID : V_MPEG4/ISO/AVC
Duration : 1 h 30 min
Bit rate : 1 701 kb/s
Width : 720 pixels
Height : 480 pixels
Display aspect ratio : 4:3
Frame rate mode : Constant
Frame rate : 23.976 (23976/1000) FPS
Color space : YUV
Chroma subsampling : 4:2:0
Bit depth : 8 bits
Scan type : Progressive
Bits/(Pixel*Frame) : 0.205
Stream size : 1.06 GiB (80%)
Writing library : x264 core 144 r2533 c8a773e
Encoding settings : cabac=1 / ref=4 / deblock=1:0:0 / analyse=0x3:0x113 / me=umh / subme=8 / psy=1 / psy_rd=1.00:0.00 / mixed_ref=1 / me_range=24 / chroma_me=1 / trellis=1 / 8x8dct=1 / cqm=0 / deadzone=21,11 / fast_pskip=1 / chroma_qp_offset=-2 / threads=3 / lookahead_threads=1 / sliced_threads=0 / nr=0 / decimate=1 / interlaced=0 / bluray_compat=0 / constrained_intra=0 / bframes=3 / b_pyramid=0 / b_adapt=2 / b_bias=0 / direct=3 / weightb=1 / open_gop=0 / weightp=2 / keyint=250 / keyint_min=25 / scenecut=40 / intra_refresh=0 / rc_lookahead=40 / rc=abr / mbtree=1 / bitrate=1701 / ratetol=1.0 / qcomp=0.60 / qpmin=10 / qpmax=51 / qpstep=4 / ip_ratio=1.41 / aq=1:1.00
Language : English
Default : Yes
Forced : No

Audio #1
ID : 2
Format : AC-3
Format/Info : Audio Coding 3
Mode extension : CM (complete main)
Format settings, Endianness : Big
Codec ID : A_AC3
Duration : 1 h 30 min
Bit rate mode : Constant
Bit rate : 192 kb/s
Channel(s) : 1 channel
Channel positions : Front: C
Sampling rate : 48.0 kHz
Frame rate : 31.250 FPS (1536 spf)
Bit depth : 16 bits
Compression mode : Lossy
Delay relative to video : -42 ms
Stream size : 125 MiB (9%)
Language : English
Default : Yes
Forced : No

Audio #2
ID : 3
Format : AC-3
Format/Info : Audio Coding 3
Mode extension : CM (complete main)
Format settings, Endianness : Big
Codec ID : A_AC3
Duration : 1 h 30 min
Bit rate mode : Constant
Bit rate : 192 kb/s
Channel(s) : 1 channel
Channel positions : Front: C
Sampling rate : 48.0 kHz
Frame rate : 31.250 FPS (1536 spf)
Bit depth : 16 bits
Compression mode : Lossy
Delay relative to video : -42 ms
Stream size : 125 MiB (9%)
Language : French
Default : No
Forced : No

Text #1
ID : 4
Format : VobSub
Muxing mode : zlib
Codec ID : S_VOBSUB
Codec ID/Info : Picture based subtitle format used on DVDs
Language : English
Default : Yes
Forced : No

Text #2
ID : 5
Format : VobSub
Muxing mode : zlib
Codec ID : S_VOBSUB
Codec ID/Info : Picture based subtitle format used on DVDs
Language : French
Default : No
Forced : No

Text #3
ID : 6
Format : VobSub
Muxing mode : zlib
Codec ID : S_VOBSUB
Codec ID/Info : Picture based subtitle format used on DVDs
Language : Portuguese
Default : No
Forced : No

Text #4
ID : 7
Format : VobSub
Muxing mode : zlib
Codec ID : S_VOBSUB
Codec ID/Info : Picture based subtitle format used on DVDs
Language : Spanish
Default : No
Forced : No

Menu
00:00:00.066 : en:Chapter 01
00:00:51.217 : en:Chapter 02
00:04:35.325 : en:Chapter 03
00:07:04.807 : en:Chapter 04
00:10:37.136 : en:Chapter 05
00:13:10.790 : en:Chapter 06
00:15:48.831 : en:Chapter 07
00:20:51.750 : en:Chapter 08
00:24:48.320 : en:Chapter 09
00:27:51.136 : en:Chapter 10
00:31:23.598 : en:Chapter 11
00:36:21.646 : en:Chapter 12
00:37:47.682 : en:Chapter 13
00:41:46.420 : en:Chapter 14
00:45:08.122 : en:Chapter 15
00:47:22.890 : en:Chapter 16
00:50:09.423 : en:Chapter 17
00:52:14.931 : en:Chapter 18
00:56:44.067 : en:Chapter 19
01:00:53.816 : en:Chapter 20
01:05:41.604 : en:Chapter 21
01:09:06.559 : en:Chapter 22
01:12:48.414 : en:Chapter 23
01:15:52.965 : en:Chapter 24
01:20:02.347 : en:Chapter 25
01:23:14.539 : en:Chapter 26
01:26:34.355 : en:Chapter 27
01:28:51.876 : en:Chapter 28




Screenshots DVDRip 1 (click to enlarge to original size):

The Complete Thin Man Collection (1934-1947)

The Complete Thin Man Collection (1934-1947)

The Complete Thin Man Collection (1934-1947)


The Complete Thin Man Collection (1934-1947)



––––––––––––––––––––––––––––––––––––––––––––––––––––-



The Complete Thin Man Collection (1934-1947)

After The Thin Man (1936)
DVDRip | MKV | 1hr 52mn | AVC, ~1,7 Mbps | 720x480 | 1.64 GB
English \ French: AC3, 1 ch, 192 kbps
Subtitle: English, French, Spanish
Genre: Comedy, Crime, Mystery
IMDB Rating: 7.7/10 (7.528 votes)


Director: W.S. Van Dyke
Writers: Frances Goodrich, Albert Hackett
Stars: William Powell, Myrna Loy, James Stewart

Now back in San Francisco after their holiday in New York, Nick and Nora find themselves trying to solve another mystery. It's New Year's Eve and they are summoned to dinner at Nora's elderly, and very aristocratic, family. There they find that cousin Selma's husband Robert has been missing for three days. Nick reluctantly agrees to look for him but the case takes a twist when Robert is shot and Selma is accused of murder. Several other murders occur but eventually Nick gathers everyone into the same room to reveal the identity of the killer.




General
Unique ID : 200273858544851914843373775498940570945 (0x96AB5795803105CF8AE77182C0A4DD41)
Complete name : M:\ThnMn.Cllctn.E2\ThnMn.Cllctn.E2.mkv
Format : Matroska
Format version : Version 4 / Version 2
File size : 1.64 GiB
Duration : 1 h 52 min
Overall bit rate : 2 091 kb/s
Movie name : Release RSU75
Encoded date : UTC 2017-04-06 12:46:54
Writing application : mkvmerge v6.6.0 ('The Edge Of The In Between') built on Dec 1 2013 17:55:00
Writing library : libebml v1.3.0 + libmatroska v1.4.1

Video
ID : 1
Format : AVC
Format/Info : Advanced Video Codec
Format profile : High@L3
Format settings, CABAC : Yes
Format settings, ReFrames : 4 frames
Codec ID : V_MPEG4/ISO/AVC
Duration : 1 h 52 min
Bit rate : 1 700 kb/s
Width : 720 pixels
Height : 480 pixels
Display aspect ratio : 4:3
Frame rate mode : Constant
Frame rate : 23.976 (23976/1000) FPS
Color space : YUV
Chroma subsampling : 4:2:0
Bit depth : 8 bits
Scan type : Progressive
Bits/(Pixel*Frame) : 0.205
Stream size : 1.31 GiB (80%)
Writing library : x264 core 144 r2533 c8a773e
Encoding settings : cabac=1 / ref=4 / deblock=1:0:0 / analyse=0x3:0x113 / me=umh / subme=8 / psy=1 / psy_rd=1.00:0.00 / mixed_ref=1 / me_range=24 / chroma_me=1 / trellis=1 / 8x8dct=1 / cqm=0 / deadzone=21,11 / fast_pskip=1 / chroma_qp_offset=-2 / threads=3 / lookahead_threads=1 / sliced_threads=0 / nr=0 / decimate=1 / interlaced=0 / bluray_compat=0 / constrained_intra=0 / bframes=3 / b_pyramid=0 / b_adapt=2 / b_bias=0 / direct=3 / weightb=1 / open_gop=0 / weightp=2 / keyint=250 / keyint_min=25 / scenecut=40 / intra_refresh=0 / rc_lookahead=40 / rc=abr / mbtree=1 / bitrate=1700 / ratetol=1.0 / qcomp=0.60 / qpmin=10 / qpmax=51 / qpstep=4 / ip_ratio=1.41 / aq=1:1.00
Language : English
Default : No
Forced : No

Audio #1
ID : 2
Format : AC-3
Format/Info : Audio Coding 3
Mode extension : CM (complete main)
Format settings, Endianness : Big
Codec ID : A_AC3
Duration : 1 h 52 min
Bit rate mode : Constant
Bit rate : 192 kb/s
Channel(s) : 1 channel
Channel positions : Front: C
Sampling rate : 48.0 kHz
Frame rate : 31.250 FPS (1536 spf)
Bit depth : 16 bits
Compression mode : Lossy
Delay relative to video : -42 ms
Stream size : 154 MiB (9%)
Language : English
Default : Yes
Forced : No

Audio #2
ID : 3
Format : AC-3
Format/Info : Audio Coding 3
Mode extension : CM (complete main)
Format settings, Endianness : Big
Codec ID : A_AC3
Duration : 1 h 52 min
Bit rate mode : Constant
Bit rate : 192 kb/s
Channel(s) : 1 channel
Channel positions : Front: C
Sampling rate : 48.0 kHz
Frame rate : 31.250 FPS (1536 spf)
Bit depth : 16 bits
Compression mode : Lossy
Delay relative to video : -42 ms
Stream size : 154 MiB (9%)
Language : French
Default : No
Forced : No

Text #1
ID : 4
Format : VobSub
Muxing mode : zlib
Codec ID : S_VOBSUB
Codec ID/Info : Picture based subtitle format used on DVDs
Language : English
Default : Yes
Forced : No

Text #2
ID : 5
Format : VobSub
Muxing mode : zlib
Codec ID : S_VOBSUB
Codec ID/Info : Picture based subtitle format used on DVDs
Language : French
Default : No
Forced : No

Text #3
ID : 6
Format : VobSub
Muxing mode : zlib
Codec ID : S_VOBSUB
Codec ID/Info : Picture based subtitle format used on DVDs
Language : Spanish
Default : No
Forced : No

Menu
00:00:00.083 : en:Chapter 01
00:01:27.420 : en:Chapter 02
00:07:34.620 : en:Chapter 03
00:12:35.254 : en:Chapter 04
00:15:53.285 : en:Chapter 05
00:20:15.047 : en:Chapter 06
00:23:54.266 : en:Chapter 07
00:27:24.676 : en:Chapter 08
00:30:07.138 : en:Chapter 09
00:33:31.175 : en:Chapter 10
00:37:57.942 : en:Chapter 11
00:41:10.468 : en:Chapter 12
00:46:07.765 : en:Chapter 13
00:50:18.348 : en:Chapter 14
00:54:59.462 : en:Chapter 15
00:58:59.569 : en:Chapter 16
01:02:27.910 : en:Chapter 17
01:06:50.673 : en:Chapter 18
01:12:30.879 : en:Chapter 19
01:15:18.463 : en:Chapter 20
01:20:31.827 : en:Chapter 21
01:23:03.178 : en:Chapter 22
01:29:11.846 : en:Chapter 23
01:33:20.094 : en:Chapter 24
01:36:05.960 : en:Chapter 25
01:40:48.242 : en:Chapter 26
01:45:24.184 : en:Chapter 27
01:49:50.367 : en:Chapter 28




Screenshots DVDRip 2 (click to enlarge to original size):

The Complete Thin Man Collection (1934-1947)



––––––––––––––––––––––––––––––––––––––––––––––––––––-



The Complete Thin Man Collection (1934-1947)

Another Thin Man (1939)
DVDRip | MKV | 1hr 42mn | AVC, ~1,7 Mbps | 720x480 | 1.50 GB
English \ French: AC3, 1 ch, 192 kbps
Subtitle: English, French, Spanish
Genre: Comedy, Crime, Drama
IMDB Rating: 7.5/10 (5.054 votes)


Director: W.S. Van Dyke
Writers: Albert Hackett, Frances Goodrich
Stars: William Powell, Myrna Loy, Virginia Grey

In this adaptation of Dashiell Hammett's "The Farewell Murder", Nick and Nora (and their dog Asta) visit the estate of Col. MacFay, who is being threatened by a mysterious man wanting revenge for a past injustice. When MacFay is murdered, that man is the obvious suspect- maybe too obvious…




General
Unique ID : 185839031138167198988406596011839141157 (0x8BCF4BA543CA53D794AEF8DC31733525)
Complete name : M:\ThnMn.Cllctn.E3\ThnMn.Cllctn.E3.mkv
Format : Matroska
Format version : Version 4 / Version 2
File size : 1.50 GiB
Duration : 1 h 42 min
Overall bit rate : 2 097 kb/s
Movie name : Release RSU75
Encoded date : UTC 2017-04-06 12:54:01
Writing application : mkvmerge v6.6.0 ('The Edge Of The In Between') built on Dec 1 2013 17:55:00
Writing library : libebml v1.3.0 + libmatroska v1.4.1

Video
ID : 1
Format : AVC
Format/Info : Advanced Video Codec
Format profile : High@L3
Format settings, CABAC : Yes
Format settings, ReFrames : 4 frames
Codec ID : V_MPEG4/ISO/AVC
Duration : 1 h 42 min
Bit rate : 1 700 kb/s
Width : 720 pixels
Height : 480 pixels
Display aspect ratio : 4:3
Frame rate mode : Constant
Frame rate : 23.976 (23976/1000) FPS
Color space : YUV
Chroma subsampling : 4:2:0
Bit depth : 8 bits
Scan type : Progressive
Bits/(Pixel*Frame) : 0.205
Stream size : 1.20 GiB (80%)
Writing library : x264 core 144 r2533 c8a773e
Encoding settings : cabac=1 / ref=4 / deblock=1:0:0 / analyse=0x3:0x113 / me=umh / subme=8 / psy=1 / psy_rd=1.00:0.00 / mixed_ref=1 / me_range=24 / chroma_me=1 / trellis=1 / 8x8dct=1 / cqm=0 / deadzone=21,11 / fast_pskip=1 / chroma_qp_offset=-2 / threads=3 / lookahead_threads=1 / sliced_threads=0 / nr=0 / decimate=1 / interlaced=0 / bluray_compat=0 / constrained_intra=0 / bframes=3 / b_pyramid=0 / b_adapt=2 / b_bias=0 / direct=3 / weightb=1 / open_gop=0 / weightp=2 / keyint=250 / keyint_min=25 / scenecut=40 / intra_refresh=0 / rc_lookahead=40 / rc=abr / mbtree=1 / bitrate=1700 / ratetol=1.0 / qcomp=0.60 / qpmin=10 / qpmax=51 / qpstep=4 / ip_ratio=1.41 / aq=1:1.00
Language : English
Default : Yes
Forced : No

Audio #1
ID : 2
Format : AC-3
Format/Info : Audio Coding 3
Mode extension : CM (complete main)
Format settings, Endianness : Big
Codec ID : A_AC3
Duration : 1 h 42 min
Bit rate mode : Constant
Bit rate : 192 kb/s
Channel(s) : 1 channel
Channel positions : Front: C
Sampling rate : 48.0 kHz
Frame rate : 31.250 FPS (1536 spf)
Bit depth : 16 bits
Compression mode : Lossy
Delay relative to video : -42 ms
Stream size : 141 MiB (9%)
Language : English
Default : Yes
Forced : No

Audio #2
ID : 3
Format : AC-3
Format/Info : Audio Coding 3
Mode extension : CM (complete main)
Format settings, Endianness : Big
Codec ID : A_AC3
Duration : 1 h 42 min
Bit rate mode : Constant
Bit rate : 192 kb/s
Channel(s) : 1 channel
Channel positions : Front: C
Sampling rate : 48.0 kHz
Frame rate : 31.250 FPS (1536 spf)
Bit depth : 16 bits
Compression mode : Lossy
Delay relative to video : -42 ms
Stream size : 141 MiB (9%)
Language : French
Default : No
Forced : No

Text #1
ID : 4
Format : VobSub
Muxing mode : zlib
Codec ID : S_VOBSUB
Codec ID/Info : Picture based subtitle format used on DVDs
Language : English
Default : Yes
Forced : No

Text #2
ID : 5
Format : VobSub
Muxing mode : zlib
Codec ID : S_VOBSUB
Codec ID/Info : Picture based subtitle format used on DVDs
Language : French
Default : No
Forced : No

Text #3
ID : 6
Format : VobSub
Muxing mode : zlib
Codec ID : S_VOBSUB
Codec ID/Info : Picture based subtitle format used on DVDs
Language : Spanish
Default : No
Forced : No

Menu
00:00:00.083 : en:Chapter 01
00:01:45.205 : en:Chapter 02
00:05:56.789 : en:Chapter 03
00:09:52.024 : en:Chapter 04
00:12:58.711 : en:Chapter 05
00:16:58.617 : en:Chapter 06
00:21:39.564 : en:Chapter 07
00:26:35.527 : en:Chapter 08
00:30:01.432 : en:Chapter 09
00:34:20.608 : en:Chapter 10
00:38:59.470 : en:Chapter 11
00:43:16.026 : en:Chapter 12
00:47:14.598 : en:Chapter 13
00:52:20.020 : en:Chapter 14
00:56:51.174 : en:Chapter 15
01:01:31.788 : en:Chapter 16
01:04:41.811 : en:Chapter 17
01:08:49.758 : en:Chapter 18
01:12:16.098 : en:Chapter 19
01:17:07.556 : en:Chapter 20
01:21:05.493 : en:Chapter 21
01:24:19.104 : en:Chapter 22
01:28:36.077 : en:Chapter 23
01:32:46.827 : en:Chapter 24
01:36:50.237 : en:Chapter 25
01:41:51.205 : en:Chapter 26




Screenshots DVDRip 3 (click to enlarge to original size):

The Complete Thin Man Collection (1934-1947)



––––––––––––––––––––––––––––––––––––––––––––––––––––-



The Complete Thin Man Collection (1934-1947)

Shadow of the Thin Man (1941)
DVDRip | MKV | 1hr 37mn | AVC, ~1,7 Mbps | 720x480 | 1.29 GB
English: AC3, 1 ch, 192 kbps
Subtitle: English, French, Spanish
Genre: Comedy, Crime, Drama
IMDB Rating: 7.3/10 (4.156 votes)


Director: W.S. Van Dyke
Writers: Irving Brecher, Harry Kurnitz
Stars: William Powell, Myrna Loy, Barry Nelson




General
Unique ID : 175746379562381742151346586689008581842 (0x843785812263D55398AA867B8EF83CD2)
Complete name : M:\ThnMn.Cllctn.E4\ThnMn.Cllctn.E4.mkv
Format : Matroska
Format version : Version 4 / Version 2
File size : 1.29 GiB
Duration : 1 h 37 min
Overall bit rate : 1 900 kb/s
Movie name : Release RSU75
Encoded date : UTC 2017-04-06 13:02:46
Writing application : mkvmerge v6.6.0 ('The Edge Of The In Between') built on Dec 1 2013 17:55:00
Writing library : libebml v1.3.0 + libmatroska v1.4.1

Video
ID : 1
Format : AVC
Format/Info : Advanced Video Codec
Format profile : High@L3
Format settings, CABAC : Yes
Format settings, ReFrames : 4 frames
Codec ID : V_MPEG4/ISO/AVC
Duration : 1 h 37 min
Bit rate : 1 700 kb/s
Width : 720 pixels
Height : 480 pixels
Display aspect ratio : 4:3
Frame rate mode : Constant
Frame rate : 23.976 (23976/1000) FPS
Color space : YUV
Chroma subsampling : 4:2:0
Bit depth : 8 bits
Scan type : Progressive
Bits/(Pixel*Frame) : 0.205
Stream size : 1.13 GiB (88%)
Writing library : x264 core 144 r2533 c8a773e
Encoding settings : cabac=1 / ref=4 / deblock=1:0:0 / analyse=0x3:0x113 / me=umh / subme=8 / psy=1 / psy_rd=1.00:0.00 / mixed_ref=1 / me_range=24 / chroma_me=1 / trellis=1 / 8x8dct=1 / cqm=0 / deadzone=21,11 / fast_pskip=1 / chroma_qp_offset=-2 / threads=3 / lookahead_threads=1 / sliced_threads=0 / nr=0 / decimate=1 / interlaced=0 / bluray_compat=0 / constrained_intra=0 / bframes=3 / b_pyramid=0 / b_adapt=2 / b_bias=0 / direct=3 / weightb=1 / open_gop=0 / weightp=2 / keyint=250 / keyint_min=25 / scenecut=40 / intra_refresh=0 / rc_lookahead=40 / rc=abr / mbtree=1 / bitrate=1700 / ratetol=1.0 / qcomp=0.60 / qpmin=10 / qpmax=51 / qpstep=4 / ip_ratio=1.41 / aq=1:1.00
Language : English
Default : Yes
Forced : No

Audio
ID : 2
Format : AC-3
Format/Info : Audio Coding 3
Mode extension : CM (complete main)
Format settings, Endianness : Big
Codec ID : A_AC3
Duration : 1 h 37 min
Bit rate mode : Constant
Bit rate : 192 kb/s
Channel(s) : 1 channel
Channel positions : Front: C
Sampling rate : 48.0 kHz
Frame rate : 31.250 FPS (1536 spf)
Bit depth : 16 bits
Compression mode : Lossy
Delay relative to video : -42 ms
Stream size : 133 MiB (10%)
Language : English
Default : Yes
Forced : No

Text #1
ID : 3
Format : VobSub
Muxing mode : zlib
Codec ID : S_VOBSUB
Codec ID/Info : Picture based subtitle format used on DVDs
Language : English
Default : Yes
Forced : No

Text #2
ID : 4
Format : VobSub
Muxing mode : zlib
Codec ID : S_VOBSUB
Codec ID/Info : Picture based subtitle format used on DVDs
Language : French
Default : No
Forced : No

Text #3
ID : 5
Format : VobSub
Muxing mode : zlib
Codec ID : S_VOBSUB
Codec ID/Info : Picture based subtitle format used on DVDs
Language : Spanish
Default : No
Forced : No

Menu
00:00:00.083 : en:Chapter 01
00:01:40.834 : en:Chapter 02
00:05:30.396 : en:Chapter 03
00:10:57.890 : en:Chapter 04
00:16:11.704 : en:Chapter 05
00:19:04.243 : en:Chapter 06
00:23:09.788 : en:Chapter 07
00:27:03.521 : en:Chapter 08
00:32:09.994 : en:Chapter 09
00:35:06.838 : en:Chapter 10
00:39:49.954 : en:Chapter 11
00:44:33.737 : en:Chapter 12
00:48:14.241 : en:Chapter 13
00:52:22.706 : en:Chapter 14
00:57:43.359 : en:Chapter 15
01:01:21.944 : en:Chapter 16
01:07:59.759 : en:Chapter 17
01:11:17.373 : en:Chapter 18
01:15:11.273 : en:Chapter 19
01:17:56.855 : en:Chapter 20
01:20:39.568 : en:Chapter 21
01:26:59.614 : en:Chapter 22
01:31:39.727 : en:Chapter 23
01:35:37.465 : en:Chapter 24




Screenshots DVDRip 4 (click to enlarge to original size):




The Complete Thin Man Collection (1934-1947)

––––––––––––––––––––––––––––––––––––––––––––––––––––-



The Complete Thin Man Collection (1934-1947)

The Thin Man Goes Home (1945)
DVDRip | MKV | 1hr 40mn | AVC, ~1,7 Mbps | 720x480 | 1.33 GB
English: AC3, 1 ch, 192 kbps
Subtitle: English, French, Spanish
Genre: Comedy, Crime, Mystery
IMDB Rating: 7.4/10 (3.819 votes)


Director: Richard Thorpe
Writers: Robert Riskin, Dwight Taylor
Stars: William Powell, Myrna Loy, Lucile Watson

Nick and Nora head to Nick's hometown of Sycamore Springs to spend some time with his parents. His father, a prominent local physician, was always a bit disappointed with Nick's choice of profession in particular and his lifestyle in general. With Nick's arrival however the towns folk, including several of the local criminal element, are convinced that he must be there on a case despite his protestations that he's just there for rest and relaxation. When someone is shot dead on his doorstep however, Nick finds himself working on a case whether he wants to or not.




General
Unique ID : 216146790378378984622471813335318193849 (0xA29C5B8B7EFE65A099DE53AEC1E6E6B9)
Complete name : M:\ThnMn.Cllctn.E5\ThnMn.Cllctn.E5.mkv
Format : Matroska
Format version : Version 4 / Version 2
File size : 1.33 GiB
Duration : 1 h 40 min
Overall bit rate : 1 901 kb/s
Movie name : Release RSU75
Encoded date : UTC 2017-04-06 13:12:04
Writing application : mkvmerge v6.6.0 ('The Edge Of The In Between') built on Dec 1 2013 17:55:00
Writing library : libebml v1.3.0 + libmatroska v1.4.1

Video
ID : 1
Format : AVC
Format/Info : Advanced Video Codec
Format profile : High@L3
Format settings, CABAC : Yes
Format settings, ReFrames : 4 frames
Codec ID : V_MPEG4/ISO/AVC
Duration : 1 h 40 min
Bit rate : 1 700 kb/s
Width : 720 pixels
Height : 480 pixels
Display aspect ratio : 4:3
Frame rate mode : Constant
Frame rate : 23.976 (23976/1000) FPS
Color space : YUV
Chroma subsampling : 4:2:0
Bit depth : 8 bits
Scan type : Progressive
Bits/(Pixel*Frame) : 0.205
Stream size : 1.17 GiB (88%)
Writing library : x264 core 144 r2533 c8a773e
Encoding settings : cabac=1 / ref=4 / deblock=1:0:0 / analyse=0x3:0x113 / me=umh / subme=8 / psy=1 / psy_rd=1.00:0.00 / mixed_ref=1 / me_range=24 / chroma_me=1 / trellis=1 / 8x8dct=1 / cqm=0 / deadzone=21,11 / fast_pskip=1 / chroma_qp_offset=-2 / threads=3 / lookahead_threads=1 / sliced_threads=0 / nr=0 / decimate=1 / interlaced=0 / bluray_compat=0 / constrained_intra=0 / bframes=3 / b_pyramid=0 / b_adapt=2 / b_bias=0 / direct=3 / weightb=1 / open_gop=0 / weightp=2 / keyint=250 / keyint_min=25 / scenecut=40 / intra_refresh=0 / rc_lookahead=40 / rc=abr / mbtree=1 / bitrate=1700 / ratetol=1.0 / qcomp=0.60 / qpmin=10 / qpmax=51 / qpstep=4 / ip_ratio=1.41 / aq=1:1.00
Language : English
Default : Yes
Forced : No

Audio
ID : 2
Format : AC-3
Format/Info : Audio Coding 3
Mode extension : CM (complete main)
Format settings, Endianness : Big
Codec ID : A_AC3
Duration : 1 h 40 min
Bit rate mode : Constant
Bit rate : 192 kb/s
Channel(s) : 1 channel
Channel positions : Front: C
Sampling rate : 48.0 kHz
Frame rate : 31.250 FPS (1536 spf)
Bit depth : 16 bits
Compression mode : Lossy
Delay relative to video : -42 ms
Stream size : 138 MiB (10%)
Language : English
Default : Yes
Forced : No

Text #1
ID : 3
Format : VobSub
Muxing mode : zlib
Codec ID : S_VOBSUB
Codec ID/Info : Picture based subtitle format used on DVDs
Language : English
Default : Yes
Forced : No

Text #2
ID : 4
Format : VobSub
Muxing mode : zlib
Codec ID : S_VOBSUB
Codec ID/Info : Picture based subtitle format used on DVDs
Language : French
Default : No
Forced : No

Text #3
ID : 5
Format : VobSub
Muxing mode : zlib
Codec ID : S_VOBSUB
Codec ID/Info : Picture based subtitle format used on DVDs
Language : Spanish
Default : No
Forced : No

Menu
00:00:00.066 : en:Chapter 01
00:01:36.796 : en:Chapter 02
00:06:35.294 : en:Chapter 03
00:10:27.326 : en:Chapter 04
00:13:56.902 : en:Chapter 05
00:19:38.410 : en:Chapter 06
00:24:52.224 : en:Chapter 07
00:29:27.132 : en:Chapter 08
00:31:49.140 : en:Chapter 09
00:35:18.149 : en:Chapter 10
00:38:57.535 : en:Chapter 11
00:43:22.416 : en:Chapter 12
00:46:28.685 : en:Chapter 13
00:51:46.803 : en:Chapter 14
00:55:17.347 : en:Chapter 15
01:00:12.508 : en:Chapter 16
01:04:55.925 : en:Chapter 17
01:08:21.831 : en:Chapter 18
01:13:12.121 : en:Chapter 19
01:17:46.194 : en:Chapter 20
01:21:28.917 : en:Chapter 21
01:26:12.867 : en:Chapter 22
01:30:36.664 : en:Chapter 23
01:34:59.093 : en:Chapter 24




Screenshots DVDRip 5 (click to enlarge to original size):

The Complete Thin Man Collection (1934-1947)



––––––––––––––––––––––––––––––––––––––––––––––––––––-



The Complete Thin Man Collection (1934-1947)

Song of the Thin Man (1947)
DVDRip | MKV | 1hr 26mn | AVC, ~1,7 Mbps | 720x480 | 1.15 GB
English: AC3, 1 ch, 192 kbps
Subtitle: English, French, Spanish
Genre: Comedy, Crime, Drama
IMDB Rating: 7.0/10 (3.450 votes)


Director: Edward Buzzell
Writers: Steve Fisher, Nat Perrin
Stars: William Powell, Myrna Loy, Keenan Wynn




General
Unique ID : 202040452482044208579574511938215483640 (0x97FF9363C7AC35898B85F5F651BA18F8)
Complete name : M:\ThnMn.Cllctn.E6\ThnMn.Cllctn.E6.mkv
Format : Matroska
Format version : Version 4 / Version 2
File size : 1.15 GiB
Duration : 1 h 26 min
Overall bit rate : 1 904 kb/s
Movie name : Release RSU75
Encoded date : UTC 2017-04-06 13:17:46
Writing application : mkvmerge v6.6.0 ('The Edge Of The In Between') built on Dec 1 2013 17:55:00
Writing library : libebml v1.3.0 + libmatroska v1.4.1

Video
ID : 1
Format : AVC
Format/Info : Advanced Video Codec
Format profile : High@L3
Format settings, CABAC : Yes
Format settings, ReFrames : 4 frames
Codec ID : V_MPEG4/ISO/AVC
Duration : 1 h 26 min
Bit rate : 1 700 kb/s
Width : 720 pixels
Height : 480 pixels
Display aspect ratio : 4:3
Frame rate mode : Constant
Frame rate : 23.976 (23976/1000) FPS
Color space : YUV
Chroma subsampling : 4:2:0
Bit depth : 8 bits
Scan type : Progressive
Bits/(Pixel*Frame) : 0.205
Stream size : 1.01 GiB (88%)
Writing library : x264 core 144 r2533 c8a773e
Encoding settings : cabac=1 / ref=4 / deblock=1:0:0 / analyse=0x3:0x113 / me=umh / subme=8 / psy=1 / psy_rd=1.00:0.00 / mixed_ref=1 / me_range=24 / chroma_me=1 / trellis=1 / 8x8dct=1 / cqm=0 / deadzone=21,11 / fast_pskip=1 / chroma_qp_offset=-2 / threads=3 / lookahead_threads=1 / sliced_threads=0 / nr=0 / decimate=1 / interlaced=0 / bluray_compat=0 / constrained_intra=0 / bframes=3 / b_pyramid=0 / b_adapt=2 / b_bias=0 / direct=3 / weightb=1 / open_gop=0 / weightp=2 / keyint=250 / keyint_min=25 / scenecut=40 / intra_refresh=0 / rc_lookahead=40 / rc=abr / mbtree=1 / bitrate=1700 / ratetol=1.0 / qcomp=0.60 / qpmin=10 / qpmax=51 / qpstep=4 / ip_ratio=1.41 / aq=1:1.00
Language : English
Default : Yes
Forced : No

Audio
ID : 2
Format : AC-3
Format/Info : Audio Coding 3
Mode extension : CM (complete main)
Format settings, Endianness : Big
Codec ID : A_AC3
Duration : 1 h 26 min
Bit rate mode : Constant
Bit rate : 192 kb/s
Channel(s) : 1 channel
Channel positions : Front: C
Sampling rate : 48.0 kHz
Frame rate : 31.250 FPS (1536 spf)
Bit depth : 16 bits
Compression mode : Lossy
Delay relative to video : -42 ms
Stream size : 119 MiB (10%)
Language : English
Default : Yes
Forced : No

Text #1
ID : 3
Format : VobSub
Muxing mode : zlib
Codec ID : S_VOBSUB
Codec ID/Info : Picture based subtitle format used on DVDs
Language : English
Default : Yes
Forced : No

Text #2
ID : 4
Format : VobSub
Muxing mode : zlib
Codec ID : S_VOBSUB
Codec ID/Info : Picture based subtitle format used on DVDs
Language : French
Default : No
Forced : No

Text #3
ID : 5
Format : VobSub
Muxing mode : zlib
Codec ID : S_VOBSUB
Codec ID/Info : Picture based subtitle format used on DVDs
Language : Spanish
Default : No
Forced : No

Menu
00:00:00.083 : en:Chapter 01
00:01:47.974 : en:Chapter 02
00:05:54.921 : en:Chapter 03
00:10:07.473 : en:Chapter 04
00:12:44.964 : en:Chapter 05
00:17:14.400 : en:Chapter 06
00:22:01.687 : en:Chapter 07
00:27:02.821 : en:Chapter 08
00:29:44.849 : en:Chapter 09
00:33:23.368 : en:Chapter 10
00:35:50.181 : en:Chapter 11
00:39:46.617 : en:Chapter 12
00:43:32.977 : en:Chapter 13
00:48:01.078 : en:Chapter 14
00:52:59.576 : en:Chapter 15
00:56:04.677 : en:Chapter 16
00:59:17.921 : en:Chapter 17
01:03:05.982 : en:Chapter 18
01:06:16.505 : en:Chapter 19
01:10:12.241 : en:Chapter 20
01:14:28.030 : en:Chapter 21
01:18:25.684 : en:Chapter 22
01:22:33.815 : en:Chapter 23




Screenshots DVDRip 6 (click to enlarge to original size):

The Complete Thin Man Collection (1934-1947)





–––––––––––––––––––––––––––––––––––––––-
>>> DVDrip <<< OR >>> "Collection" <<<
–––––––––––––––––––––––––––––––––––––––-
>>> Visit Blog RSU75 Here <<<
–––––––––––––––––––––––––––––––––––––––-