Othello / The Tragedy of Othello: The Moor of Venice (1951) [Remastered]

Othello / The Tragedy of Othello: The Moor of Venice (1951) [Remastered]

Othello / The Tragedy of Othello: The Moor of Venice (1951)
BDRip 720p | MKV | 992x720 | AVC@7977 kb/s | English FLAC@621 kb/s
Subs: English | 1 channel | 1 h 30 min | 5.47 GB
BDRip 1080p | MKV | 1488x1080 | AVC@13.1 Mb/s | English FLAC@621 kb/s
Subs: English | 1 channel | 1 h 30 min | 8.75 GB
Genre: Drama, History, Romance

The Moorish general Othello is manipulated into thinking that his new wife Desdemona has been carrying on an affair with his lieutenant Michael Cassio when in reality it is all part of the scheme of a bitter ensign named Iago.

IMDB - 1 win & 1 nomination.


General
Othello.1951.REMASTERED.720p.BluRay.x264-USURY\othello.1951.remastered.720p.bluray.x264-usury.mkv
Format : Matroska
Format version : Version 4 / Version 2
File size : 5.47 GiB
Duration : 1 h 30 min
Overall bit rate mode : Variable
Overall bit rate : 8 599 kb/s
Encoded date : UTC 2017-10-14 11:46:27
Writing application : mkvmerge v8.3.0 ('Over the Horizon') 64bit
Writing library : libebml v1.3.1 + libmatroska v1.4.2

Video
ID : 1
Format : AVC
Format/Info : Advanced Video Codec
Format profile : High@L4.1
Format settings, CABAC : Yes
Format settings, ReFrames : 5 frames
Codec ID : V_MPEG4/ISO/AVC
Duration : 1 h 30 min
Bit rate : 7 977 kb/s
Width : 992 pixels
Height : 720 pixels
Display aspect ratio : 1.378
Frame rate mode : Constant
Frame rate : 23.976 (24000/1001) FPS
Color space : YUV
Chroma subsampling : 4:2:0
Bit depth : 8 bits
Scan type : Progressive
Bits/(Pixel*Frame) : 0.466
Stream size : 5.07 GiB (93%)
Writing library : x264 core 152 r2851 ba24899
Encoding settings : cabac=1 / ref=5 / deblock=1:-3:-3 / analyse=0x3:0x133 / me=umh / subme=9 / psy=1 / psy_rd=1.00:0.00 / mixed_ref=1 / me_range=16 / chroma_me=1 / trellis=2 / 8x8dct=1 / cqm=0 / deadzone=21,11 / fast_pskip=0 / chroma_qp_offset=-2 / threads=18 / lookahead_threads=1 / sliced_threads=0 / nr=0 / decimate=1 / interlaced=0 / bluray_compat=0 / constrained_intra=0 / bframes=3 / b_pyramid=2 / b_adapt=1 / b_bias=0 / direct=3 / weightb=1 / open_gop=0 / weightp=2 / keyint=240 / keyint_min=24 / scenecut=40 / intra_refresh=0 / rc_lookahead=50 / rc=2pass / mbtree=1 / bitrate=7977 / ratetol=1.0 / qcomp=0.60 / qpmin=0 / qpmax=69 / qpstep=4 / cplxblur=20.0 / qblur=0.5 / ip_ratio=1.40 / aq=1:1.00
Language : English
Default : Yes
Forced : No

Audio
ID : 2
Format : FLAC
Format/Info : Free Lossless Audio Codec
Codec ID : A_FLAC
Duration : 1 h 30 min
Bit rate mode : Variable
Bit rate : 621 kb/s
Channel(s) : 1 channel
Channel positions : Front: C
Sampling rate : 48.0 kHz
Frame rate : 11.719 FPS (4096 spf)
Bit depth : 24 bits
Stream size : 404 MiB (7%)
Writing library : libFLAC 1.2.1 (UTC 2007-09-17)
Language : English
Default : Yes
Forced : No

Text #1
ID : 3
Format : UTF-8
Codec ID : S_TEXT/UTF8
Codec ID/Info : UTF-8 Plain Text
Duration : 1 h 24 min
Bit rate : 68 b/s
Count of elements : 1169
Stream size : 42.1 KiB (0%)
Title : English
Language : English
Default : No
Forced : No

Text #2
ID : 4
Format : UTF-8
Codec ID : S_TEXT/UTF8
Codec ID/Info : UTF-8 Plain Text
Duration : 1 h 26 min
Bit rate : 69 b/s
Count of elements : 1245
Stream size : 43.9 KiB (0%)
Title : English SDH
Language : English
Default : No
Forced : No

Menu
00:00:00.000 : en:00:00:00.000
00:04:28.935 : en:00:04:28.935
00:05:27.661 : en:00:05:27.661
00:13:31.019 : en:00:13:31.019
00:16:14.682 : en:00:16:14.682
00:19:23.037 : en:00:19:23.037
00:23:40.753 : en:00:23:40.753
00:28:48.143 : en:00:28:48.143
00:32:56.600 : en:00:32:56.600
00:40:58.706 : en:00:40:58.706
00:45:41.197 : en:00:45:41.197
00:52:04.955 : en:00:52:04.955
00:57:47.464 : en:00:57:47.464
01:00:23.286 : en:01:00:23.286
01:03:37.063 : en:01:03:37.063
01:07:14.864 : en:01:07:14.864
01:12:41.983 : en:01:12:41.983
01:15:15.428 : en:01:15:15.428
01:20:44.965 : en:01:20:44.965
01:26:06.703 : en:01:26:06.703
01:29:53.430 : en:01:29:53.430

General
Othello.1951.REMASTERED.1080p.BluRay.x264-USURY\othello.1951.remastered.1080p.bluray.x264-usury.mkv
Format : Matroska
Format version : Version 4 / Version 2
File size : 8.75 GiB
Duration : 1 h 30 min
Overall bit rate mode : Variable
Overall bit rate : 13.8 Mb/s
Encoded date : UTC 2017-10-14 14:12:20
Writing application : mkvmerge v8.3.0 ('Over the Horizon') 64bit
Writing library : libebml v1.3.1 + libmatroska v1.4.2

Video
ID : 1
Format : AVC
Format/Info : Advanced Video Codec
Format profile : High@L4.1
Format settings, CABAC : Yes
Format settings, ReFrames : 4 frames
Codec ID : V_MPEG4/ISO/AVC
Duration : 1 h 30 min
Bit rate : 13.1 Mb/s
Width : 1 488 pixels
Height : 1 080 pixels
Display aspect ratio : 1.378
Frame rate mode : Constant
Frame rate : 23.976 (24000/1001) FPS
Color space : YUV
Chroma subsampling : 4:2:0
Bit depth : 8 bits
Scan type : Progressive
Bits/(Pixel*Frame) : 0.341
Stream size : 8.35 GiB (95%)
Writing library : x264 core 152 r2851 ba24899
Encoding settings : cabac=1 / ref=4 / deblock=1:-3:-3 / analyse=0x3:0x133 / me=umh / subme=9 / psy=1 / psy_rd=1.00:0.00 / mixed_ref=1 / me_range=16 / chroma_me=1 / trellis=2 / 8x8dct=1 / cqm=0 / deadzone=21,11 / fast_pskip=0 / chroma_qp_offset=-2 / threads=18 / lookahead_threads=1 / sliced_threads=0 / nr=0 / decimate=1 / interlaced=0 / bluray_compat=0 / constrained_intra=0 / bframes=3 / b_pyramid=2 / b_adapt=1 / b_bias=0 / direct=3 / weightb=1 / open_gop=0 / weightp=2 / keyint=240 / keyint_min=24 / scenecut=40 / intra_refresh=0 / rc_lookahead=50 / rc=2pass / mbtree=1 / bitrate=13140 / ratetol=1.0 / qcomp=0.60 / qpmin=0 / qpmax=69 / qpstep=4 / cplxblur=20.0 / qblur=0.5 / ip_ratio=1.40 / aq=1:1.00
Language : English
Default : Yes
Forced : No

Audio
ID : 2
Format : FLAC
Format/Info : Free Lossless Audio Codec
Codec ID : A_FLAC
Duration : 1 h 30 min
Bit rate mode : Variable
Bit rate : 621 kb/s
Channel(s) : 1 channel
Channel positions : Front: C
Sampling rate : 48.0 kHz
Frame rate : 11.719 FPS (4096 spf)
Bit depth : 24 bits
Stream size : 404 MiB (5%)
Writing library : libFLAC 1.2.1 (UTC 2007-09-17)
Language : English
Default : Yes
Forced : No

Text #1
ID : 3
Format : UTF-8
Codec ID : S_TEXT/UTF8
Codec ID/Info : UTF-8 Plain Text
Duration : 1 h 24 min
Bit rate : 68 b/s
Count of elements : 1169
Stream size : 42.1 KiB (0%)
Title : English
Language : English
Default : No
Forced : No

Text #2
ID : 4
Format : UTF-8
Codec ID : S_TEXT/UTF8
Codec ID/Info : UTF-8 Plain Text
Duration : 1 h 26 min
Bit rate : 69 b/s
Count of elements : 1245
Stream size : 43.9 KiB (0%)
Title : English SDH
Language : English
Default : No
Forced : No

Menu
00:00:00.000 : en:00:00:00.000
00:04:28.935 : en:00:04:28.935
00:05:27.661 : en:00:05:27.661
00:13:31.019 : en:00:13:31.019
00:16:14.682 : en:00:16:14.682
00:19:23.037 : en:00:19:23.037
00:23:40.753 : en:00:23:40.753
00:28:48.143 : en:00:28:48.143
00:32:56.600 : en:00:32:56.600
00:40:58.706 : en:00:40:58.706
00:45:41.197 : en:00:45:41.197
00:52:04.955 : en:00:52:04.955
00:57:47.464 : en:00:57:47.464
01:00:23.286 : en:01:00:23.286
01:03:37.063 : en:01:03:37.063
01:07:14.864 : en:01:07:14.864
01:12:41.983 : en:01:12:41.983
01:15:15.428 : en:01:15:15.428
01:20:44.965 : en:01:20:44.965
01:26:06.703 : en:01:26:06.703
01:29:53.430 : en:01:29:53.430


BDRip 720p Screenshots

Othello / The Tragedy of Othello: The Moor of Venice (1951) [Remastered]

Othello / The Tragedy of Othello: The Moor of Venice (1951) [Remastered]

Othello / The Tragedy of Othello: The Moor of Venice (1951) [Remastered]


BDRip 1080p Screenshots

Othello / The Tragedy of Othello: The Moor of Venice (1951) [Remastered]

Othello / The Tragedy of Othello: The Moor of Venice (1951) [Remastered]

Othello / The Tragedy of Othello: The Moor of Venice (1951) [Remastered]


Come Visit My Blog (•‿•)