The Tenant / Le locataire (1976)

The Tenant / Le locataire (1976)

The Tenant / Le locataire (1976)
WEB-DL 720p | MKV | 1278x720 | AVC@3932 kb/s | English AC3@192 kb/s
Subs: English | 2 channels | 2 h 5 min | 3.68 GB
Genre: Drama, Thriller

A bureaucrat rents a Paris apartment where he finds himself drawn into a rabbit hole of dangerous paranoia.

IMDB - 2 nominations


General
Unique ID : 194230444118072676312634970383218185309 (0x921F6C3F7ED1F7B187551DF21EFD145D)
Complete name : G:\HDNLUF221\Torrents\The.Tenant.1976.720p.WEB-DL.DD2.0.H264-FGT\The.Tenant.1976.720p.WEB-DL.DD2.0.H264-FGT.mkv
Format : Matroska
Format version : Version 4 / Version 2
File size : 3.69 GiB
Duration : 2 h 5 min
Overall bit rate : 4 208 kb/s
Movie name : The.Tenant.1976.720p.WEB-DL.DD2.0.H264-FGT
Encoded date : UTC 2016-01-29 13:34:49
Writing application : mkvmerge v8.8.0 ('Wind at my back') 64bit
Writing library : libebml v1.3.3 + libmatroska v1.4.4
Cover : Yes
Attachments : cover_land.jpg / small_cover.jpg / small_cover_land.jpg / cover.jpg

Video
ID : 1
Format : AVC
Format/Info : Advanced Video Codec
Format profile : High@L3.1
Format settings, CABAC : No
Format settings, ReFrames : 2 frames
Codec ID : V_MPEG4/ISO/AVC
Duration : 2 h 5 min
Bit rate : 3 932 kb/s
Width : 1 278 pixels
Height : 720 pixels
Display aspect ratio : 16:9
Frame rate mode : Constant
Frame rate : 23.976 FPS
Color space : YUV
Chroma subsampling : 4:2:0
Bit depth : 8 bits
Scan type : Progressive
Bits/(Pixel*Frame) : 0.178
Stream size : 3.45 GiB (93%)
Title : The.Tenant.1976.720p.WEB-DL.DD2.0.H264-FGT
Language : English
Default : Yes
Forced : No
Color range : Limited
Color primaries : BT.709
Transfer characteristics : BT.709
Matrix coefficients : BT.709

Audio
ID : 2
Format : AC-3
Format/Info : Audio Coding 3
Mode extension : CM (complete main)
Format settings, Endianness : Big
Codec ID : A_AC3
Duration : 2 h 5 min
Bit rate mode : Constant
Bit rate : 192 kb/s
Channel(s) : 2 channels
Channel positions : Front: L R
Sampling rate : 48.0 kHz
Frame rate : 31.250 FPS (1536 spf)
Bit depth : 16 bits
Compression mode : Lossy
Stream size : 172 MiB (5%)
Title : The.Tenant.1976.720p.WEB-DL.DD2.0.H264-FGT
Language : English
Default : No
Forced : No

Text
ID : 3
Format : UTF-8
Codec ID : S_TEXT/UTF8
Codec ID/Info : UTF-8 Plain Text
Language : English
Default : No
Forced : No

Menu
00:00:00.000 : en:Chapter 1
00:15:26.000 : en:Chapter 2
00:29:55.000 : en:Chapter 3
00:46:41.000 : en:Chapter 4
00:59:56.000 : en:Chapter 5
01:15:05.000 : en:Chapter 6
01:31:11.000 : en:Chapter 7
01:47:24.000 : en:Chapter 8
02:00:42.000 : en:Chapter 9


WEB-DL 720p Screenshots

The Tenant / Le locataire (1976)

The Tenant / Le locataire (1976)

The Tenant / Le locataire (1976)

The Tenant / Le locataire (1976)

The Tenant / Le locataire (1976)


Come Visit My Blog (•‿•)