The Sunshine Boys (1975)

The Sunshine Boys (1975)

The Sunshine Boys (1975)
BDRip 1080p | MKV | 1920x1080 | AVC@12.6 Mb/s | English DTS@1509 kb/s
Subs: English | 2 channels | 1 h 51 min | 10.9 GB
Genre: Comedy

A vaudeville duo agree to reunite for a TV special, but it turns out that they can't stand each other.

IMDB - Won 1 Oscar. Another 5 wins & 6 nominations


General
The.Sunshine.Boys.1975.1080p.BluRay.X264-AMIABLE\The.Sunshine.Boys.1975.1080p.BluRay.X264-AMIABLE.mkv
Format : Matroska
Format version : Version 2
File size : 10.9 GiB
Duration : 1 h 51 min
Overall bit rate : 14.1 Mb/s
Writing application : mkvmerge v6.6.0 ('The Edge Of The In Between') built on Dec 1 2013 17:55:00
Writing library : libebml v1.3.0 + libmatroska v1.4.1

Video
ID : 1
Format : AVC
Format/Info : Advanced Video Codec
Format profile : High@L4.1
Format settings, CABAC : Yes
Format settings, ReFrames : 4 frames
Codec ID : V_MPEG4/ISO/AVC
Duration : 1 h 51 min
Bit rate : 12.6 Mb/s
Width : 1 920 pixels
Height : 1 080 pixels
Display aspect ratio : 16:9
Frame rate mode : Constant
Frame rate : 23.976 (24000/1001) FPS
Color space : YUV
Chroma subsampling : 4:2:0
Bit depth : 8 bits
Scan type : Progressive
Bits/(Pixel*Frame) : 0.253
Stream size : 9.54 GiB (87%)
Writing library : x264 core 146 r2538 121396c
Encoding settings : cabac=1 / ref=4 / deblock=1:-3:-3 / analyse=0x3:0x113 / me=umh / subme=8 / psy=1 / psy_rd=1.15:0.00 / mixed_ref=1 / me_range=16 / chroma_me=1 / trellis=1 / 8x8dct=1 / cqm=0 / deadzone=21,11 / fast_pskip=1 / chroma_qp_offset=-2 / threads=18 / lookahead_threads=3 / sliced_threads=0 / nr=0 / decimate=1 / interlaced=0 / bluray_compat=0 / constrained_intra=0 / bframes=3 / b_pyramid=2 / b_adapt=2 / b_bias=0 / direct=3 / weightb=1 / open_gop=0 / weightp=2 / keyint=240 / keyint_min=24 / scenecut=40 / intra_refresh=0 / rc_lookahead=50 / rc=2pass / mbtree=1 / bitrate=12582 / ratetol=1.0 / qcomp=0.60 / qpmin=0 / qpmax=69 / qpstep=4 / cplxblur=20.0 / qblur=0.5 / ip_ratio=1.40 / aq=1:1.00
Language : English
Default : Yes
Forced : No

Audio
ID : 2
Format : DTS
Format/Info : Digital Theater Systems
Mode : 16
Format settings, Endianness : Big
Codec ID : A_DTS
Duration : 1 h 51 min
Bit rate mode : Constant
Bit rate : 1 509 kb/s
Channel(s) : 2 channels
Channel positions : Front: L R
Sampling rate : 48.0 kHz
Frame rate : 93.750 FPS (512 spf)
Bit depth : 24 bits
Compression mode : Lossy
Stream size : 1.17 GiB (11%)
Language : English
Default : Yes
Forced : No

Text #1
ID : 3
Format : UTF-8
Codec ID : S_TEXT/UTF8
Codec ID/Info : UTF-8 Plain Text
Language : English
Default : No
Forced : No

Text #2
ID : 4
Format : UTF-8
Codec ID : S_TEXT/UTF8
Codec ID/Info : UTF-8 Plain Text
Title : SDH
Language : English
Default : No
Forced : No

Menu
00:00:00.000 : en:00:00:00.000
00:03:31.128 : en:00:03:31.128
00:07:05.842 : en:00:07:05.842
00:11:14.507 : en:00:11:14.507
00:14:27.283 : en:00:14:27.283
00:16:35.036 : en:00:16:35.036
00:19:37.802 : en:00:19:37.802
00:24:28.676 : en:00:24:28.676
00:30:23.363 : en:00:30:23.363
00:35:13.278 : en:00:35:13.278
00:37:59.611 : en:00:37:59.611
00:41:39.497 : en:00:41:39.497
00:46:00.508 : en:00:46:00.508
00:50:46.335 : en:00:50:46.335
00:55:14.186 : en:00:55:14.186
00:58:31.717 : en:00:58:31.717
01:04:51.763 : en:01:04:51.763
01:09:09.687 : en:01:09:09.687
01:13:44.712 : en:01:13:44.712
01:20:41.920 : en:01:20:41.920
01:23:50.567 : en:01:23:50.567
01:28:17.125 : en:01:28:17.125
01:30:19.122 : en:01:30:19.122
01:36:42.130 : en:01:36:42.130
01:39:42.685 : en:01:39:42.685
01:43:40.214 : en:01:43:40.214
01:47:39.870 : en:01:47:39.870
01:49:48.248 : en:01:49:48.248


BDRip 1080p Screenshots

The Sunshine Boys (1975)

The Sunshine Boys (1975)

The Sunshine Boys (1975)

The Sunshine Boys (1975)


Come Visit My Blog (•‿•)