The Seventh Seal / Det sjunde inseglet (1957)

The Seventh Seal / Det sjunde inseglet (1957)

The Seventh Seal / Det sjunde inseglet (1957)
BDRip 1080p | MKV | 1440x1078 | AVC@17.8 Mb/s | Swedish AC3@192 Kbps | 1 channels
English Commentary Vorbis 2.0 @80 Kbps | 1 h 37 min | 12.3 GB
Subs: English, Finnish, French, Polish, Spanish
Genre: Drama, Fantasy

A man seeks answers about life, death, and the existence of God as he plays chess against the Grim Reaper during the Black Plague.

IMDB - Top Rated Movies #142 | 7 wins & 1 nomination.


General
The.Seventh.Seal.1957.1080p.BluRay.x264-DON\The.Seventh.Seal.1957.1080p.BluRay.x264-DON.mkv
Format : Matroska
Format version : Version 1
File size : 12.3 GiB
Duration : 1 h 37 min
Overall bit rate mode : Variable
Overall bit rate : 18.1 Mb/s
Encoded date : UTC 2009-06-23 16:18:23
Writing application : mkvmerge v2.5.1 ('He Wasn't There') built on Feb 22 2009 18:19:47
Writing library : libebml v0.7.7 + libmatroska v0.8.1
Attachments : CronosPro-Bold.ttf / CronosPro-Semibold.ttf / CronosPro-SemiboldIt.ttf

Video
ID : 1
Format : AVC
Format/Info : Advanced Video Codec
Format profile : Main@L4.1
Format settings, CABAC : Yes
Format settings, ReFrames : 5 frames
Codec ID : V_MPEG4/ISO/AVC
Duration : 1 h 37 min
Bit rate : 17.8 Mb/s
Width : 1 440 pixels
Height : 1 078 pixels
Display aspect ratio : 4:3
Frame rate mode : Constant
Frame rate : 23.976 (24000/1001) FPS
Color space : YUV
Chroma subsampling : 4:2:0
Bit depth : 8 bits
Scan type : Progressive
Bits/(Pixel*Frame) : 0.479
Stream size : 11.9 GiB (97%)
Writing library : x264 core 67 r1165M 6841c5e
Encoding settings : cabac=1 / ref=5 / deblock=1:-3:-3 / analyse=0x1:0x111 / me=umh / subme=9 / psy_rd=0.7:0.0 / mixed_ref=1 / me_range=48 / chroma_me=1 / trellis=2 / 8x8dct=0 / cqm=0 / deadzone=21,11 / chroma_qp_offset=-2 / threads=6 / nr=0 / decimate=0 / mbaff=0 / bframes=9 / b_pyramid=1 / b_adapt=2 / b_bias=0 / direct=3 / wpredb=1 / keyint=250 / keyint_min=25 / scenecut=40 / rc=2pass / bitrate=17822 / ratetol=1.0 / qcomp=0.60 / qpmin=10 / qpmax=51 / qpstep=4 / cplxblur=20.0 / qblur=0.5 / ip_ratio=1.40 / pb_ratio=1.30 / aq=1:0.50
Language : Swedish
Default : Yes
Forced : No

Audio #1
ID : 2
Format : AC-3
Format/Info : Audio Coding 3
Mode extension : CM (complete main)
Format settings, Endianness : Big
Codec ID : A_AC3
Duration : 1 h 37 min
Bit rate mode : Constant
Bit rate : 192 kb/s
Channel(s) : 1 channel
Channel positions : Front: C
Sampling rate : 48.0 kHz
Frame rate : 31.250 FPS (1536 spf)
Bit depth : 16 bits
Compression mode : Lossy
Stream size : 134 MiB (1%)
Title : AC3 1.0 @ 192 Kbps
Language : Swedish
Default : Yes
Forced : No

Audio #2
ID : 3
Format : Vorbis
Format settings, Floor : 1
Codec ID : A_VORBIS
Duration : 1 h 37 min
Bit rate mode : Variable
Bit rate : 80.0 kb/s
Channel(s) : 2 channels
Sampling rate : 48.0 kHz
Compression mode : Lossy
Stream size : 55.9 MiB (0%)
Title : Commentary Vorbis 2.0 @ 80 Kbps
Writing application : Made with BeSweet v1.5b31
Writing library : libVorbis 1.0 (UTC 2002-07-17)
Language : English
Default : No
Forced : No
Encoded_Application/Url : http://DSPguru.doom9.org

Text #1
ID : 4
Format : ASS
Codec ID : S_TEXT/ASS
Codec ID/Info : Advanced Sub Station Alpha
Compression mode : Lossless
Language : scr
Default : No
Forced : No

Text #2
ID : 5
Format : ASS
Codec ID : S_TEXT/ASS
Codec ID/Info : Advanced Sub Station Alpha
Compression mode : Lossless
Language : English
Default : No
Forced : No

Text #3
ID : 6
Format : ASS
Codec ID : S_TEXT/ASS
Codec ID/Info : Advanced Sub Station Alpha
Compression mode : Lossless
Language : Finnish
Default : No
Forced : No

Text #4
ID : 7
Format : ASS
Codec ID : S_TEXT/ASS
Codec ID/Info : Advanced Sub Station Alpha
Compression mode : Lossless
Language : French
Default : No
Forced : No

Text #5
ID : 8
Format : ASS
Codec ID : S_TEXT/ASS
Codec ID/Info : Advanced Sub Station Alpha
Compression mode : Lossless
Language : Polish
Default : No
Forced : No

Text #6
ID : 9
Format : ASS
Codec ID : S_TEXT/ASS
Codec ID/Info : Advanced Sub Station Alpha
Compression mode : Lossless
Language : Spanish
Default : No
Forced : No


BDRip 1080p Screenshots

The Seventh Seal / Det sjunde inseglet (1957)

The Seventh Seal / Det sjunde inseglet (1957)

The Seventh Seal / Det sjunde inseglet (1957)

The Seventh Seal / Det sjunde inseglet (1957)

The Seventh Seal / Det sjunde inseglet (1957)

The Seventh Seal / Det sjunde inseglet (1957)

The Seventh Seal / Det sjunde inseglet (1957)

The Seventh Seal / Det sjunde inseglet (1957)

The Seventh Seal / Det sjunde inseglet (1957)


Come Visit My Blog (•‿•)