The Secret Life of Adolf Hitler (1958)

The Secret Life of Adolf Hitler (1958)

The Secret Life of Adolf Hitler (1958)
DVDRip | 512 x 384 | .AVI/DivX @ 1733 Kbps | 52 min 45 s | 700 MB
Audio: English MP3 110 Kbps, 2 channels | Subs: None
Genre: Documentary, Biography, History

1950's television documentary special that includes interviews with Hitler's sister Paula Wolf and a fellow prisoner who was incarcerated with Hitler, actual footage shot by the Nazi's and Eva Braun's rare home movies.

also You can find my last: World War II

General
Complete name : The_Secret_Life_of_Adolf_Hitler.avi
Format : AVI
Format/Info : Audio Video Interleave
File size : 700 MiB
Duration : 52 min 45 s
Overall bit rate mode : Variable
Overall bit rate : 1 855 kb/s
Writing application : VirtualDubMod 1.5.4.1 (build 2178/release)
Writing library : VirtualDubMod build 2178/release

Video
ID : 0
Format : MPEG-4 Visual
Format settings, BVOP : No
Format settings, QPel : No
Format settings, GMC : No warppoints
Format settings, Matrix : Default (H.263)
Codec ID : DX50
Codec ID/Hint : DivX 5
Duration : 52 min 45 s
Bit rate : 1 733 kb/s
Nominal bit rate : 6 951 kb/s
Width : 512 pixels
Height : 384 pixels
Display aspect ratio : 4:3
Frame rate : 23.976 (24000/1001) FPS
Color space : YUV
Chroma subsampling : 4:2:0
Bit depth : 8 bits
Scan type : Progressive
Compression mode : Lossy
Bits/(Pixel*Frame) : 0.368
Stream size : 654 MiB (93%)
Writing library : DivX 5.2.1 (DrDivX 106) (UTC 2004-09-08)

Audio
ID : 1
Format : MPEG Audio
Format version : Version 1
Format profile : Layer 3
Mode : Joint stereo
Codec ID : 55
Codec ID/Hint : MP3
Duration : 52 min 45 s
Bit rate mode : Variable
Bit rate : 110 kb/s
Nominal bit rate : 128 kb/s
Channel(s) : 2 channels
Sampling rate : 48.0 kHz
Compression mode : Lossy
Stream size : 41.4 MiB (6%)
Alignment : Aligned on interleaves
Interleave, duration : 24 ms (0.58 video frame)
Interleave, preload duration : 546 ms
Writing library : LAME3.97b
Encoding settings : -m j -V 4 -q 2 -lowpass 17 –abr 128
Screenshots

The Secret Life of Adolf Hitler (1958)

The Secret Life of Adolf Hitler (1958)

The Secret Life of Adolf Hitler (1958)

Welcome to my blog - daily update!