The Hunter (1980)

The Hunter (1980)

The Hunter (1980)
WEBRip | AVI | 1 h 37 min | 1.23 GB | 720x400 | XviD@1599 kb/s | English MP3@192 kb/s, 2 ch
WEBRip 1080p | MKV | 1 h 37 min | 4.16 GB | 1920x1080 | AVC@6000 kb/s | English AAC@127 kb/s, 2 ch
Subs: English
Genre: Action | Biography | Comedy | Crime | Drama | Thriller

The story of professional bounty hunter Ralph "Papa" Thorson.



General
The.Hunter.1980.WEBRip.XviD.MP3-XVID.avi
Format : AVI
Format/Info : Audio Video Interleave
Format profile : OpenDML
File size : 1.23 GB
Duration : 1 h 37 min
Overall bit rate : 1807 kb/s
Writing application : Lavf58.20.100

Video
ID : 0
Format : MPEG-4 Visual
Format profile : Simple@L5
Format settings, BVOP : No
Format settings, QPel : No
Format settings, GMC : No warppoints
Format settings, Matrix : Default (H.263)
Codec ID : XVID
Codec ID/Hint : XviD
Duration : 1 h 37 min
Bit rate : 1599 kb/s
Width : 720 pixels
Height : 400 pixels
Display aspect ratio : 16:9
Frame rate : 23.976 (24000/1001) FPS
Color space : YUV
Chroma subsampling : 4:2:0
Bit depth : 8 bits
Scan type : Progressive
Compression mode : Lossy
Bits/(Pixel*Frame) : 0.232
Stream size : 1.09 GB (89%)
Writing library : Lavc58.35.100

Audio
ID : 1
Format : MPEG Audio
Format version : Version 1
Format profile : Layer 3
Mode : Joint stereo
Mode extension : MS Stereo
Codec ID : 55
Codec ID/Hint : MP3
Duration : 1 h 37 min
Bit rate mode : Constant
Bit rate : 192 kb/s
Channel(s) : 2 channels
Sampling rate : 48.0 kHz
Compression mode : Lossy
Stream size : 134 MB (11%)
Alignment : Aligned on interleaves
Interleave, duration : 24 ms (0.58 video frame)
Interleave, preload duration : 72 ms
Writing library : LAME3.99.5


General
The.Hunter.1980.1080p.WEBRip.AAC2.0.x264-GQ.mkv
Format : Matroska
Format version : Version 4 / Version 2
File size : 4.16 GB
Duration : 1 h 37 min
Overall bit rate : 6108 kb/s
Encoded date : UTC 2020-02-01 15:42:44
Writing application : mkvmerge v43.0.0 ('The Quartermaster') 64-bit
Writing library : libebml v1.3.10 + libmatroska v1.5.2

Video
ID : 1
Format : AVC
Format/Info : Advanced Video Codec
Format profile : High@L4
Format settings, CABAC : Yes
Format settings, ReFrames : 2 frames
Codec ID : V_MPEG4/ISO/AVC
Duration : 1 h 37 min
Bit rate : 6000 kb/s
Width : 1920 pixels
Height : 1080 pixels
Display aspect ratio : 16:9
Frame rate mode : Constant
Frame rate : 23.976 (24000/1001) FPS
Original frame rate : 24.000 FPS
Color space : YUV
Chroma subsampling : 4:2:0
Bit depth : 8 bits
Scan type : Progressive
Bits/(Pixel*Frame) : 0.121
Stream size : 4.07 GB (98%)
Writing library : x264 core 148 r2579M 73ae2d1
Encoding settings : cabac=1 / ref=2 / deblock=1:0:0 / analyse=0x3:0x113 / me=hex / subme=2 / psy=1 / psy_rd=1.00:0.00 / mixed_ref=0 / me_range=16 / chroma_me=1 / trellis=0 / 8x8dct=1 / cqm=0 / deadzone=21,11 / fast_pskip=1 / chroma_qp_offset=0 / threads=4 / lookahead_threads=1 / sliced_threads=0 / nr=250 / decimate=1 / interlaced=0 / bluray_compat=0 / stitchable=1 / constrained_intra=0 / bframes=0 / weightp=1 / keyint=250 / keyint_min=24 / scenecut=40 / intra_refresh=0 / rc_lookahead=10 / rc=2pass / mbtree=1 / bitrate=6000 / ratetol=1.0 / qcomp=0.60 / qpmin=5 / qpmax=69 / qpstep=4 / cplxblur=20.0 / qblur=0.5 / ip_ratio=1.40 / aq=1:1.00
Default : Yes
Forced : No

Audio
ID : 2
Format : AAC
Format/Info : Advanced Audio Codec
Format profile : HE-AAC / LC
Codec ID : A_AAC
Duration : 1 h 37 min
Bit rate : 127 kb/s
Channel(s) : 2 channels
Channel positions : Front: L R
Sampling rate : 48.0 kHz / 24.0 kHz
Frame rate : 23.438 FPS (1024 spf)
Compression mode : Lossy
Delay relative to video : -42 ms
Stream size : 88.3 MB (2%)
Language : English
Default : Yes
Forced : No

Text #1
ID : 3
Format : UTF-8
Codec ID : S_TEXT/UTF8
Codec ID/Info : UTF-8 Plain Text
Duration : 1 h 32 min
Bit rate : 39 b/s
Count of elements : 914
Stream size : 26.9 KiB (0%)
Language : English
Default : No
Forced : No

Text #2
ID : 4
Format : UTF-8
Codec ID : S_TEXT/UTF8
Codec ID/Info : UTF-8 Plain Text
Duration : 1 h 33 min
Bit rate : 45 b/s
Count of elements : 1117
Stream size : 31.2 KiB (0%)
Title : SDH
Language : English
Default : No
Forced : No



WEBRip Screenshots

The Hunter (1980)

The Hunter (1980)

The Hunter (1980)


WEBRip 1080p Screenshots

The Hunter (1980)

The Hunter (1980)

The Hunter (1980)


Come Visit My Blog (•‿•)