The Great Race (1965)

The Great Race (1965)

The Great Race (1965)
BDRip 1080p | MKV | 1920x800 | AVC@9254 kb/s | English DTS@1509 kb/s
Subs: English | 6 channels | 2 h 39 min | 12.0 GB
Genre: Action, Adventure, Comedy

A grand adventurous race takes place between the heroic Leslie and the despicable Professor Fate across three continents.

IMDB - Won 1 Oscar. Another 2 wins & 14 nominations


General
The.Great.Race.1965.1080p.BluRay.X264-AMIABLE\The.Great.Race.1965.REPACK.1080p.BluRay.X264-AMIABLE.mkv
Format : Matroska
Format version : Version 2
File size : 12.0 GiB
Duration : 2 h 39 min
Overall bit rate : 10.8 Mb/s
Writing application : mkvmerge v6.6.0 ('The Edge Of The In Between') built on Dec 1 2013 17:55:00
Writing library : libebml v1.3.0 + libmatroska v1.4.1

Video
ID : 1
Format : AVC
Format/Info : Advanced Video Codec
Format profile : High@L4.1
Format settings, CABAC : Yes
Format settings, ReFrames : 5 frames
Codec ID : V_MPEG4/ISO/AVC
Duration : 2 h 39 min
Bit rate : 9 254 kb/s
Width : 1 920 pixels
Height : 800 pixels
Display aspect ratio : 2.40:1
Frame rate mode : Constant
Frame rate : 23.976 (24000/1001) FPS
Color space : YUV
Chroma subsampling : 4:2:0
Bit depth : 8 bits
Scan type : Progressive
Bits/(Pixel*Frame) : 0.251
Stream size : 10.1 GiB (84%)
Writing library : x264 core 142 r2479 dd79a61
Encoding settings : cabac=1 / ref=5 / deblock=1:-3:-3 / analyse=0x3:0x113 / me=umh / subme=8 / psy=1 / psy_rd=1.00:0.00 / mixed_ref=1 / me_range=16 / chroma_me=1 / trellis=1 / 8x8dct=1 / cqm=0 / deadzone=21,11 / fast_pskip=1 / chroma_qp_offset=-2 / threads=18 / lookahead_threads=3 / sliced_threads=0 / nr=0 / decimate=1 / interlaced=0 / bluray_compat=0 / constrained_intra=0 / bframes=3 / b_pyramid=2 / b_adapt=2 / b_bias=0 / direct=3 / weightb=1 / open_gop=0 / weightp=2 / keyint=240 / keyint_min=24 / scenecut=40 / intra_refresh=0 / rc_lookahead=50 / rc=2pass / mbtree=1 / bitrate=9254 / ratetol=1.0 / qcomp=0.60 / qpmin=0 / qpmax=69 / qpstep=4 / cplxblur=20.0 / qblur=0.5 / ip_ratio=1.40 / aq=1:1.00
Language : English
Default : Yes
Forced : No

Audio
ID : 2
Format : DTS
Format/Info : Digital Theater Systems
Mode : 16
Format settings, Endianness : Big
Codec ID : A_DTS
Duration : 2 h 39 min
Bit rate mode : Constant
Bit rate : 1 509 kb/s
Channel(s) : 6 channels
Channel positions : Front: L C R, Side: L R, LFE
Sampling rate : 48.0 kHz
Frame rate : 93.750 FPS (512 spf)
Bit depth : 24 bits
Compression mode : Lossy
Stream size : 1.69 GiB (14%)
Language : English
Default : Yes
Forced : No

Text #1
ID : 3
Format : UTF-8
Codec ID : S_TEXT/UTF8
Codec ID/Info : UTF-8 Plain Text
Title : SDH
Language : English
Default : No
Forced : No

Text #2
ID : 4
Format : UTF-8
Codec ID : S_TEXT/UTF8
Codec ID/Info : UTF-8 Plain Text
Language : English
Default : No
Forced : No

Menu
00:00:00.000 : en:00:00:00.000
00:03:43.890 : en:00:03:43.890
00:06:39.441 : en:00:06:39.441
00:10:16.449 : en:00:10:16.449
00:13:20.967 : en:00:13:20.967
00:15:49.615 : en:00:15:49.615
00:18:22.935 : en:00:18:22.935
00:21:00.885 : en:00:21:00.885
00:23:37.124 : en:00:23:37.124
00:25:57.139 : en:00:25:57.139
00:29:56.795 : en:00:29:56.795
00:32:50.635 : en:00:32:50.635
00:37:45.180 : en:00:37:45.180
00:42:17.243 : en:00:42:17.243
00:45:31.020 : en:00:45:31.020
00:51:17.241 : en:00:51:17.241
00:53:04.973 : en:00:53:04.973
00:57:24.983 : en:00:57:24.983
01:00:24.663 : en:01:00:24.663
01:05:32.762 : en:01:05:32.762
01:11:17.857 : en:01:11:17.857
01:16:49.313 : en:01:16:49.313
01:21:54.076 : en:01:21:54.076
01:25:27.456 : en:01:25:27.456
01:28:23.215 : en:01:28:23.215
01:30:21.875 : en:01:30:21.875
01:32:09.107 : en:01:32:09.107
01:36:54.517 : en:01:36:54.517
01:40:46.165 : en:01:40:46.165
01:44:34.643 : en:01:44:34.643
01:48:08.440 : en:01:48:08.440
01:52:05.218 : en:01:52:05.218
01:55:02.687 : en:01:55:02.687
01:59:18.151 : en:01:59:18.151
02:03:55.261 : en:02:03:55.261
02:07:52.206 : en:02:07:52.206
02:13:24.955 : en:02:13:24.955
02:17:46.133 : en:02:17:46.133
02:21:18.178 : en:02:21:18.178
02:26:14.557 : en:02:26:14.557
02:29:51.482 : en:02:29:51.482
02:33:31.202 : en:02:33:31.202
02:36:05.898 : en:02:36:05.898
02:38:08.479 : en:02:38:08.479


BDRip 1080p Screenshots

The Great Race (1965)

The Great Race (1965)

The Great Race (1965)

The Great Race (1965)

The Great Race (1965)

The Great Race (1965)


Come Visit My Blog (•‿•)