The Glory Guys (1965)

The Glory Guys (1965)

The Glory Guys (1965)
BDRip 1080p | MKV | 1920x816 | AVC@9413 kb/s | English FLAC@245 kb/s
Subs: English | 2 channels | 1 h 53 min | 7.64 GB
Genre: Romance, Western

What could be worse for two cavalry officers than to battle with native tribes? To battle each other for the same woman.

IMDB - Nominated for 1 Golden Globe


General
Complete name : The.Glory.Guys.1965.1080p.BluRay.x264-SADPANDA\The.Glory.Guys.1965.1080p.BluRay.x264-SADPANDA.mkv
Format : Matroska
Format version : Version 4 / Version 2
File size : 7.65 GiB
Duration : 1 h 53 min
Overall bit rate mode : Variable
Overall bit rate : 9 660 kb/s
Encoded date : UTC 2017-04-18 04:03:26
Writing application : mkvmerge v10.0.0 ('To Drown In You') 64bit
Writing library : libebml v1.3.4 + libmatroska v1.4.5

Video
ID : 1
Format : AVC
Format/Info : Advanced Video Codec
Format profile : High@L4.1
Format settings, CABAC : Yes
Format settings, ReFrames : 5 frames
Codec ID : V_MPEG4/ISO/AVC
Duration : 1 h 53 min
Bit rate : 9 413 kb/s
Width : 1 920 pixels
Height : 816 pixels
Display aspect ratio : 2.35:1
Frame rate mode : Constant
Frame rate : 23.976 (24000/1001) FPS
Color space : YUV
Chroma subsampling : 4:2:0
Bit depth : 8 bits
Scan type : Progressive
Bits/(Pixel*Frame) : 0.251
Stream size : 7.45 GiB (97%)
Writing library : x264 core 148 r2744 b97ae06
Encoding settings : cabac=1 / ref=5 / deblock=1:-3:-3 / analyse=0x3:0x113 / me=umh / subme=8 / psy=1 / psy_rd=1.00:0.25 / mixed_ref=1 / me_range=24 / chroma_me=1 / trellis=1 / 8x8dct=1 / cqm=0 / deadzone=21,11 / fast_pskip=1 / chroma_qp_offset=-4 / threads=25 / lookahead_threads=4 / sliced_threads=0 / nr=0 / decimate=1 / interlaced=0 / bluray_compat=0 / constrained_intra=0 / bframes=3 / b_pyramid=2 / b_adapt=1 / b_bias=0 / direct=3 / weightb=1 / open_gop=0 / weightp=2 / keyint=240 / keyint_min=24 / scenecut=40 / intra_refresh=0 / rc_lookahead=50 / rc=2pass / mbtree=1 / bitrate=9413 / ratetol=1.0 / qcomp=0.60 / qpmin=0 / qpmax=69 / qpstep=4 / cplxblur=20.0 / qblur=0.5 / ip_ratio=1.40 / aq=1:0.75
Default : Yes
Forced : No

Audio
ID : 2
Format : FLAC
Format/Info : Free Lossless Audio Codec
Codec ID : A_FLAC
Duration : 1 h 53 min
Bit rate mode : Variable
Bit rate : 245 kb/s
Channel(s) : 2 channels
Channel positions : Front: L R
Sampling rate : 48.0 kHz
Frame rate : 11.719 FPS (4096 spf)
Bit depth : 16 bits
Stream size : 198 MiB (3%)
Writing library : libFLAC 1.2.1 (UTC 2007-09-17)
Language : English
Default : Yes
Forced : No

Menu
00:00:00.000 : en:00:00:00.000
00:04:41.072 : en:00:04:41.072
00:09:52.008 : en:00:09:52.008
00:14:16.939 : en:00:14:16.939
00:19:07.688 : en:00:19:07.688
00:23:12.391 : en:00:23:12.391
00:29:46.201 : en:00:29:46.201
00:32:48.466 : en:00:32:48.466
00:37:50.477 : en:00:37:50.477
00:41:23.356 : en:00:41:23.356
00:46:35.710 : en:00:46:35.710
00:52:52.002 : en:00:52:52.002
00:56:46.403 : en:00:56:46.403
01:02:09.726 : en:01:02:09.726
01:05:28.508 : en:01:05:28.508
01:11:23.404 : en:01:11:23.404
01:14:37.056 : en:01:14:37.056
01:20:37.207 : en:01:20:37.207
01:25:04.516 : en:01:25:04.516
01:29:28.363 : en:01:29:28.363
01:34:41.593 : en:01:34:41.593
01:39:14.699 : en:01:39:14.699
01:43:53.018 : en:01:43:53.018
01:48:43.517 : en:01:48:43.517


BDRip 1080p Screenshots

The Glory Guys (1965)

The Glory Guys (1965)

The Glory Guys (1965)

The Glory Guys (1965)


Come Visit My Blog (•‿•)