The Gate (1987)

The Gate (1987)

The Gate (1987)
BDRip 1080p | MKV | 1920x1036 | AVC@11.5 Mb/s | English DTS@1509 kb/s
Subs: English | 2 channels | 1 h 25 min | 7.65 GB
Genre: Fantasy, Horror

Two young boys accidentally release a horde of nasty, pint-sized demons from a hole in a suburban backyard. What follows is a classic battle between good and evil as the two kids struggle to overcome a nightmarish hell that literally begins to take over the Earth.

IMDB - 2 wins & 2 nominations


General
Unique ID : 227307267029890553036943801155448503527 (0xAB01C986EB937FD380D0745EB4CC7CE7)
Complete name : The.Gate.1987.1080p.BluRay.x264.DTS-FGT\The.Gate.1987.1080p.BluRay.x264.DTS-FGT.mkv
Format : Matroska
Format version : Version 4 / Version 2
File size : 7.66 GiB
Duration : 1 h 25 min
Overall bit rate : 12.8 Mb/s
Movie name : The.Gate.1987.1080p.BluRay.x264.DTS-FGT
Encoded date : UTC 2017-03-03 10:23:53
Writing application : mkvmerge v9.9.0 ('Pick Up') 64bit
Writing library : libebml v1.3.4 + libmatroska v1.4.5
Cover : Yes
Attachments : cover_land.jpg / small_cover.jpg / small_cover_land.jpg / cover.jpg

Video
ID : 1
Format : AVC
Format/Info : Advanced Video Codec
Format profile : High@L4.1
Format settings, CABAC : Yes
Format settings, ReFrames : 4 frames
Codec ID : V_MPEG4/ISO/AVC
Duration : 1 h 25 min
Bit rate : 11.5 Mb/s
Width : 1 920 pixels
Height : 1 036 pixels
Display aspect ratio : 1.85:1
Frame rate mode : Constant
Frame rate : 23.976 (24000/1001) FPS
Color space : YUV
Chroma subsampling : 4:2:0
Bit depth : 8 bits
Scan type : Progressive
Bits/(Pixel*Frame) : 0.241
Stream size : 6.60 GiB (86%)
Title : The.Gate.1987.1080p.BluRay.x264.DTS-FGT
Writing library : x264 core 148 r2694 3b70645
Encoding settings : cabac=1 / ref=4 / deblock=1:-2:-2 / analyse=0x3:0x113 / me=umh / subme=7 / psy=1 / psy_rd=1.00:0.15 / mixed_ref=1 / me_range=16 / chroma_me=1 / trellis=1 / 8x8dct=1 / cqm=0 / deadzone=21,11 / fast_pskip=1 / chroma_qp_offset=-3 / threads=40 / lookahead_threads=3 / sliced_threads=0 / nr=0 / decimate=1 / interlaced=0 / bluray_compat=0 / constrained_intra=0 / bframes=3 / b_pyramid=2 / b_adapt=2 / b_bias=0 / direct=3 / weightb=1 / open_gop=0 / weightp=2 / keyint=250 / keyint_min=25 / scenecut=40 / intra_refresh=0 / rc_lookahead=50 / rc=abr / mbtree=1 / bitrate=11500 / ratetol=1.0 / qcomp=0.60 / qpmin=0 / qpmax=69 / qpstep=4 / vbv_maxrate=31250 / vbv_bufsize=31250 / nal_hrd=none / filler=0 / ip_ratio=1.40 / aq=1:1.00
Language : English
Default : Yes
Forced : No

Audio
ID : 2
Format : DTS
Format/Info : Digital Theater Systems
Mode : 16
Format settings, Endianness : Big
Codec ID : A_DTS
Duration : 1 h 25 min
Bit rate mode : Constant
Bit rate : 1 509 kb/s
Channel(s) : 2 channels
Channel positions : Front: L R
Sampling rate : 48.0 kHz
Frame rate : 93.750 FPS (512 spf)
Bit depth : 24 bits
Compression mode : Lossy
Stream size : 926 MiB (12%)
Title : The.Gate.1987.1080p.BluRay.x264.DTS-FGT
Language : English
Default : Yes
Forced : No

Text
ID : 3
Format : UTF-8
Codec ID : S_TEXT/UTF8
Codec ID/Info : UTF-8 Plain Text
Language : English
Default : Yes
Forced : No

Menu
00:00:00.000 : en:Chapter 01
00:06:02.028 : en:Chapter 02
00:12:55.524 : en:Chapter 03
00:21:44.761 : en:Chapter 04
00:29:00.280 : en:Chapter 05
00:34:20.975 : en:Chapter 06
00:40:58.581 : en:Chapter 07
00:48:21.356 : en:Chapter 08
00:55:02.382 : en:Chapter 09
01:02:05.430 : en:Chapter 10
01:09:48.559 : en:Chapter 11
01:22:35.992 : en:Chapter 12


BDRip 1080p Screenshots

The Gate (1987)

The Gate (1987)

The Gate (1987)

The Gate (1987)

The Gate (1987)


Come Visit My Blog (•‿•)