The Doll / Die Puppe (1919)

The Doll / Die Puppe (1919)

The Doll / Die Puppe (1919)
BDRip | MKV | 720x528 | AVC@1418 Kbps | German AAC@99 Kbps
Subs: English | 2 channels | 1 h 5 min | 711 MB
BDRip 1080p | MKV | 1456x1080 | AVC@8928 kb/s | German AC3@640 kb/s
Subs: English | 2 channels | 1 h 5 min | 4.37 GB
Genre: Comedy, Fantasy

Because the Baron of Chanterelle wants to preserve his family line, he forces his timid nephew Lancelot to choose one of the village maidens to wed. Lancelot flees to a monastery to escape the forty eager maidens. When the gluttonous monks discover that the Baron is offering a large sum for the marriage, they suggest Lancelot marry a mechanical doll instead. The doll maker has just finished making a replica of his daughter Ossi, but his assistant accidentally breaks it and convinces the real girl to mimic the doll. Lancelot buys her, thinking she is a doll, and takes her back to the monastery, where they are wed.



General
The.Doll.1919.BDRip.x264-GHOULS\the.doll.1919.bdrip.x264-ghouls.mkv
Format : Matroska
Format version : Version 4 / Version 2
File size : 711 MiB
Duration : 1 h 5 min
Overall bit rate : 1 520 kb/s
Encoded date : UTC 2017-11-12 00:49:00
Writing application : mkvmerge v17.0.0 ('Be Ur Friend') 64-bit
Writing library : libebml v1.3.5 + libmatroska v1.4.8

Video
ID : 2
Format : AVC
Format/Info : Advanced Video Codec
Format profile : High@L3.1
Format settings, CABAC : Yes
Format settings, ReFrames : 5 frames
Codec ID : V_MPEG4/ISO/AVC
Duration : 1 h 5 min
Width : 720 pixels
Height : 528 pixels
Display aspect ratio : 4:3
Frame rate mode : Constant
Frame rate : 17.982 (18000/1001) FPS
Color space : YUV
Chroma subsampling : 4:2:0
Bit depth : 8 bits
Scan type : Progressive
Writing library : x264 core 152 r2851kMod ba24899
Encoding settings : cabac=1 / ref=5 / deblock=1:-3:-3 / analyse=0x3:0x113 / me=hex / subme=8 / psy=1 / fade_compensate=0.00 / psy_rd=1.00:0.15 / mixed_ref=1 / me_range=16 / chroma_me=1 / trellis=2 / 8x8dct=1 / cqm=0 / deadzone=21,11 / fast_pskip=1 / chroma_qp_offset=-3 / threads=16 / lookahead_threads=2 / sliced_threads=0 / nr=0 / decimate=1 / interlaced=0 / bluray_compat=0 / constrained_intra=0 / bframes=3 / b_pyramid=2 / b_adapt=1 / b_bias=0 / direct=3 / weightb=1 / open_gop=0 / weightp=2 / keyint=250 / keyint_min=17 / scenecut=40 / intra_refresh=0 / rc_lookahead=50 / rc=crf / mbtree=1 / crf=23.0000 / qcomp=0.60 / qpmin=0 / qpmax=69 / qpstep=4 / vbv_maxrate=17500 / vbv_bufsize=17500 / crf_max=0.0 / nal_hrd=none / filler=0 / ip_ratio=1.40 / aq=1:0.60
Default : Yes
Forced : No
Color range : Limited
Matrix coefficients : BT.709

Audio
ID : 3
Format : AAC
Format/Info : Advanced Audio Codec
Format profile : LC
Codec ID : A_AAC
Duration : 1 h 5 min
Channel(s) : 2 channels
Channel positions : Front: L R
Sampling rate : 48.0 kHz
Frame rate : 46.875 FPS (1024 spf)
Compression mode : Lossy
Delay relative to video : 20 ms
Default : Yes
Forced : No

Text
ID : 1
Format : UTF-8
Codec ID : S_TEXT/UTF8
Codec ID/Info : UTF-8 Plain Text
Language : English
Default : Yes
Forced : No

Menu
00:00:00.000 : en:00:00:00.000
00:00:12.012 : en:00:00:12.012
00:05:45.762 : en:00:05:45.762
00:11:24.267 : en:00:11:24.267
00:19:47.353 : en:00:19:47.353
00:28:17.571 : en:00:28:17.571
00:37:20.321 : en:00:37:20.321
00:44:57.361 : en:00:44:57.361
00:52:09.376 : en:00:52:09.376
01:04:07.802 : en:01:04:07.802

General
The.Doll.1919.1080p.BluRay.x264-GHOULS\the.doll.1919.1080p.bluray.x264-ghouls.mkv
Format : Matroska
Format version : Version 4 / Version 2
File size : 4.37 GiB
Duration : 1 h 5 min
Overall bit rate : 9 570 kb/s
Encoded date : UTC 2017-11-12 00:48:17
Writing application : mkvmerge v17.0.0 ('Be Ur Friend') 64-bit
Writing library : libebml v1.3.5 + libmatroska v1.4.8

Video
ID : 2
Format : AVC
Format/Info : Advanced Video Codec
Format profile : High@L4.1
Format settings, CABAC : Yes
Format settings, ReFrames : 5 frames
Codec ID : V_MPEG4/ISO/AVC
Duration : 1 h 5 min
Bit rate : 8 928 kb/s
Width : 1 456 pixels
Height : 1 080 pixels
Display aspect ratio : 4:3
Frame rate mode : Constant
Frame rate : 17.982 (18000/1001) FPS
Color space : YUV
Chroma subsampling : 4:2:0
Bit depth : 8 bits
Scan type : Progressive
Bits/(Pixel*Frame) : 0.316
Stream size : 3.99 GiB (91%)
Writing library : x264 core 152 r2851kMod ba24899
Encoding settings : cabac=1 / ref=5 / deblock=1:-3:-3 / analyse=0x3:0x133 / me=umh / subme=8 / psy=1 / fade_compensate=0.00 / psy_rd=1.00:0.00 / mixed_ref=1 / me_range=16 / chroma_me=1 / trellis=1 / 8x8dct=1 / cqm=0 / deadzone=21,11 / fast_pskip=0 / chroma_qp_offset=-2 / threads=24 / lookahead_threads=4 / sliced_threads=0 / nr=0 / decimate=1 / interlaced=0 / bluray_compat=0 / constrained_intra=0 / bframes=3 / b_pyramid=2 / b_adapt=1 / b_bias=0 / direct=3 / weightb=1 / open_gop=0 / weightp=2 / keyint=250 / keyint_min=17 / scenecut=40 / intra_refresh=0 / rc_lookahead=50 / rc=2pass / mbtree=1 / bitrate=8928 / ratetol=1.0 / qcomp=0.60 / qpmin=0 / qpmax=69 / qpstep=4 / cplxblur=20.0 / qblur=0.5 / vbv_maxrate=62500 / vbv_bufsize=78125 / nal_hrd=none / filler=0 / ip_ratio=1.40 / aq=1:1.00
Default : Yes
Forced : No

Audio
ID : 3
Format : AC-3
Format/Info : Audio Coding 3
Mode extension : CM (complete main)
Format settings, Endianness : Big
Codec ID : A_AC3
Duration : 1 h 5 min
Bit rate mode : Constant
Bit rate : 640 kb/s
Channel(s) : 2 channels
Channel positions : Front: L R
Sampling rate : 48.0 kHz
Frame rate : 31.250 FPS (1536 spf)
Bit depth : 16 bits
Compression mode : Lossy
Stream size : 299 MiB (7%)
Default : Yes
Forced : No

Text
ID : 1
Format : UTF-8
Codec ID : S_TEXT/UTF8
Codec ID/Info : UTF-8 Plain Text
Language : English
Default : Yes
Forced : No

Menu
00:00:00.000 : en:00:00:00.000
00:00:12.012 : en:00:00:12.012
00:05:45.762 : en:00:05:45.762
00:11:24.267 : en:00:11:24.267
00:19:47.353 : en:00:19:47.353
00:28:17.571 : en:00:28:17.571
00:37:20.321 : en:00:37:20.321
00:44:57.361 : en:00:44:57.361
00:52:09.376 : en:00:52:09.376
01:04:07.802 : en:01:04:07.802


BDRip Screenshots

The Doll / Die Puppe (1919)

The Doll / Die Puppe (1919)

The Doll / Die Puppe (1919)

The Doll / Die Puppe (1919)


BDRip 1080p Screenshots

The Doll / Die Puppe (1919)

The Doll / Die Puppe (1919)

The Doll / Die Puppe (1919)

The Doll / Die Puppe (1919)


Come Visit My Blog (•‿•)