The Company of Wolves (1984) [Repost]

The Company of Wolves (1984) [Repost]

The Company of Wolves (1984)
BDRip 720p | MKV | 1280x720 | AVC@7900 kb/s | English AC3@640 kb/s
Subs: English | 6 channels | 1 h 35 min | 5.71 GB
Genre: Horror, Fantasy

A teenage girl in a country manor falls asleep while reading a magazine and she has a disturbing dream involving wolves which appears to take place in the woods visible from her bedroom window.

IMDB - Nominated for 4 BAFTA Film Awards. Another 10 wins & 1 nomination.


General
The.Company.of.Wolves.1984.720p.BluRay.DD5.1.x264-DON\The.Company.of.Wolves.1984.720p.BluRay.DD5.1.x264-DON.mkv
Format : Matroska
Format version : Version 4 / Version 2
File size : 5.71 GiB
Duration : 1 h 35 min
Overall bit rate : 8 550 kb/s
Encoded date : UTC 2016-10-18 11:15:18
Writing application : mkvmerge v9.5.0 ('Quiet Fire') 64bit
Writing library : libebml v1.3.4 + libmatroska v1.4.5

Video
ID : 1
Format : AVC
Format/Info : Advanced Video Codec
Format profile : High@L4.1
Format settings, CABAC : Yes
Format settings, ReFrames : 9 frames
Codec ID : V_MPEG4/ISO/AVC
Duration : 1 h 35 min
Bit rate : 7 900 kb/s
Width : 1 280 pixels
Height : 720 pixels
Display aspect ratio : 16:9
Frame rate mode : Constant
Frame rate : 23.976 (24000/1001) FPS
Color space : YUV
Chroma subsampling : 4:2:0
Bit depth : 8 bits
Scan type : Progressive
Bits/(Pixel*Frame) : 0.358
Stream size : 5.28 GiB (92%)
Writing library : x264 core 148 r2705 3f5ed56
Encoding settings : cabac=1 / ref=9 / deblock=1:-3:-3 / analyse=0x3:0x133 / me=umh / subme=11 / psy=1 / psy_rd=1.05:0.00 / mixed_ref=1 / me_range=48 / chroma_me=1 / trellis=2 / 8x8dct=1 / cqm=0 / deadzone=21,11 / fast_pskip=0 / chroma_qp_offset=-2 / threads=18 / lookahead_threads=3 / sliced_threads=0 / slices=4 / nr=0 / decimate=0 / interlaced=0 / bluray_compat=0 / constrained_intra=0 / bframes=8 / b_pyramid=2 / b_adapt=2 / b_bias=0 / direct=3 / weightb=1 / open_gop=0 / weightp=2 / keyint=250 / keyint_min=23 / scenecut=40 / intra_refresh=0 / rc_lookahead=40 / rc=2pass / mbtree=0 / bitrate=7900 / ratetol=1.0 / qcomp=0.65 / qpmin=0 / qpmax=51 / qpstep=4 / cplxblur=20.0 / qblur=0.5 / vbv_maxrate=62500 / vbv_bufsize=78125 / nal_hrd=none / filler=0 / ip_ratio=1.30 / pb_ratio=1.20 / aq=3:0.60
Language : English
Default : Yes
Forced : No

Audio
ID : 2
Format : AC-3
Format/Info : Audio Coding 3
Mode extension : CM (complete main)
Format settings, Endianness : Big
Codec ID : A_AC3
Duration : 1 h 35 min
Bit rate mode : Constant
Bit rate : 640 kb/s
Channel(s) : 6 channels
Channel positions : Front: L C R, Side: L R, LFE
Sampling rate : 48.0 kHz
Frame rate : 31.250 FPS (1536 spf)
Bit depth : 16 bits
Compression mode : Lossy
Stream size : 437 MiB (7%)
Title : English AC3 5.1 @ 640 Kbps
Language : English
Default : Yes
Forced : No

Text
ID : 3
Format : UTF-8
Codec ID : S_TEXT/UTF8
Codec ID/Info : UTF-8 Plain Text
Duration : 1 h 30 min
Bit rate : 31 b/s
Count of elements : 602
Stream size : 20.8 KiB (0%)
Title : English
Language : English
Default : No
Forced : No

Menu
00:00:00.000 : en:1
00:09:46.836 : en:2
00:16:09.510 : en:3
00:22:07.826 : en:4
00:31:22.964 : en:5
00:38:30.517 : en:6
00:45:41.656 : en:7
00:55:24.530 : en:8
01:02:08.308 : en:9
01:08:10.169 : en:10
01:16:49.188 : en:11
01:26:47.953 : en:12


BDRip 720p Screenshots

The Company of Wolves (1984) [Repost]

The Company of Wolves (1984) [Repost]

The Company of Wolves (1984) [Repost]

The Company of Wolves (1984) [Repost]

The Company of Wolves (1984) [Repost]


Come Visit My Blog (•‿•)