The Breaking Point (1950)

The Breaking Point (1950)

The Breaking Point (1950)
BDRip 720p | MKV | 992x720 | AVC@7398 kb/s | English FLAC@615 kb/s
Subs: English | 1 channel | 1 h 37 min | 5.46 GB
Genre: Crime, Drama, Film-Noir

An otherwise moral captain of a charter boat becomes financially strapped and is drawn into illegal activities in order to keep up payments on his boat.



General
The.Breaking.Point.1950.720p.BluRay.x264-RedBlade\The.Breaking.Point.1950.720p.BluRay.x264-RedBlade.mkv
Format : Matroska
Format version : Version 2
File size : 5.47 GiB
Duration : 1 h 37 min
Overall bit rate mode : Variable
Overall bit rate : 8 016 kb/s
Encoded date : UTC 2017-08-14 02:47:09
Writing application : mkvmerge v14.0.0 ('Flow') 64bit
Writing library : libebml v1.3.4 + libmatroska v1.4.5

Video
ID : 1
Format : AVC
Format/Info : Advanced Video Codec
Format profile : High@L4.1
Format settings, CABAC : Yes
Format settings, ReFrames : 5 frames
Codec ID : V_MPEG4/ISO/AVC
Duration : 1 h 37 min
Bit rate : 7 398 kb/s
Width : 992 pixels
Height : 720 pixels
Display aspect ratio : 1.378
Frame rate mode : Constant
Frame rate : 23.976 (24000/1001) FPS
Color space : YUV
Chroma subsampling : 4:2:0
Bit depth : 8 bits
Scan type : Progressive
Bits/(Pixel*Frame) : 0.432
Stream size : 5.04 GiB (92%)
Writing library : x264 core 152 r2851 ba24899
Encoding settings : cabac=1 / ref=5 / deblock=1:-3:-3 / analyse=0x3:0x113 / me=umh / subme=8 / psy=1 / psy_rd=1.00:0.00 / mixed_ref=1 / me_range=16 / chroma_me=1 / trellis=1 / 8x8dct=1 / cqm=0 / deadzone=21,11 / fast_pskip=1 / chroma_qp_offset=-2 / threads=12 / lookahead_threads=2 / sliced_threads=0 / nr=0 / decimate=1 / interlaced=0 / bluray_compat=0 / constrained_intra=0 / bframes=3 / b_pyramid=2 / b_adapt=2 / b_bias=0 / direct=3 / weightb=1 / open_gop=0 / weightp=2 / keyint=240 / keyint_min=24 / scenecut=40 / intra_refresh=0 / rc_lookahead=50 / rc=2pass / mbtree=1 / bitrate=7398 / ratetol=1.0 / qcomp=0.60 / qpmin=0 / qpmax=69 / qpstep=4 / cplxblur=20.0 / qblur=0.5 / vbv_maxrate=62500 / vbv_bufsize=78125 / nal_hrd=none / filler=0 / ip_ratio=1.40 / aq=1:1.00
Language : English
Default : Yes
Forced : No

Audio
ID : 2
Format : FLAC
Format/Info : Free Lossless Audio Codec
Codec ID : A_FLAC
Duration : 1 h 37 min
Bit rate mode : Variable
Bit rate : 615 kb/s
Channel(s) : 1 channel
Channel positions : Front: C
Sampling rate : 48.0 kHz
Frame rate : 11.719 FPS (4096 spf)
Bit depth : 24 bits
Stream size : 429 MiB (8%)
Writing library : libFLAC 1.2.1 (UTC 2007-09-17)
Language : English
Default : Yes
Forced : No

Text
ID : 3
Format : UTF-8
Codec ID : S_TEXT/UTF8
Codec ID/Info : UTF-8 Plain Text
Duration : 1 h 35 min
Bit rate : 81 b/s
Count of elements : 1528
Stream size : 56.8 KiB (0%)
Language : English
Default : No
Forced : No

Menu
00:00:00.000 : en:00:00:00.000
00:06:58.209 : en:00:06:58.209
00:10:11.528 : en:00:10:11.528
00:14:29.452 : en:00:14:29.452
00:19:57.780 : en:00:19:57.780
00:22:34.645 : en:00:22:34.645
00:31:09.701 : en:00:31:09.701
00:33:45.523 : en:00:33:45.523
00:38:18.880 : en:00:38:18.880
00:41:27.652 : en:00:41:27.652
00:46:45.803 : en:00:46:45.803
00:48:23.275 : en:00:48:23.275
00:51:42.266 : en:00:51:42.266
00:54:51.914 : en:00:54:51.914
00:57:19.227 : en:00:57:19.227
01:00:44.724 : en:01:00:44.724
01:03:29.973 : en:01:03:29.973
01:05:44.566 : en:01:05:44.566
01:10:08.913 : en:01:10:08.913
01:14:36.430 : en:01:14:36.430
01:17:52.877 : en:01:17:52.877
01:25:29.541 : en:01:25:29.541
01:31:28.692 : en:01:31:28.692


BDRip 720p Screenshots

The Breaking Point (1950)

The Breaking Point (1950)

The Breaking Point (1950)


Come Visit My Blog (•‿•)