The Brain That Wouldn't Die (1962)

The Brain That Wouldn't Die (1962)

The Brain That Wouldn't Die (1962)
BDRip 720p | MKV | 1200x720 | AVC@4303 kb/s | English FLAC@271 kb/s | 2 channels | 1 h 22 min | 2.63 GB
Genre: Horror, Sci-Fi

A doctor experimenting with transplant techniques keeps his girlfriend's head alive when she is decapitated in a car crash, then goes hunting for a new body.



General
Unique ID : 206271531816380977517717577297705566471 (0x9B2E73B4F5BD5AAF871A4FEF02340107)
Complete name : D:\The.Brain.That.Wouldnt.Die.1962.720p.BluRay.x264-SADPANDA[rarbg]\The.Brain.That.Wouldnt.Die.1962.720p.BluRay.x264-SADPANDA.mkv
Format : Matroska
Format version : Version 4 / Version 2
File size : 2.64 GiB
Duration : 1 h 22 min
Overall bit rate mode : Variable
Overall bit rate : 4 576 kb/s
Encoded date : UTC 2017-01-08 01:44:41
Writing application : mkvmerge v9.6.0 ('Slave To Your Mind') 64bit
Writing library : libebml v1.3.4 + libmatroska v1.4.5

Video
ID : 1
Format : AVC
Format/Info : Advanced Video Codec
Format profile : High@L4.1
Format settings, CABAC : Yes
Format settings, ReFrames : 5 frames
Codec ID : V_MPEG4/ISO/AVC
Duration : 1 h 22 min
Bit rate : 4 303 kb/s
Width : 1 200 pixels
Height : 720 pixels
Display aspect ratio : 5:3
Frame rate mode : Constant
Frame rate : 23.976 (24000/1001) FPS
Color space : YUV
Chroma subsampling : 4:2:0
Bit depth : 8 bits
Scan type : Progressive
Bits/(Pixel*Frame) : 0.208
Stream size : 2.48 GiB (94%)
Writing library : x264 core 148 r2744 b97ae06
Encoding settings : cabac=1 / ref=5 / deblock=1:-3:-3 / analyse=0x3:0x113 / me=umh / subme=8 / psy=1 / psy_rd=1.00:0.25 / mixed_ref=1 / me_range=24 / chroma_me=1 / trellis=1 / 8x8dct=1 / cqm=0 / deadzone=21,11 / fast_pskip=1 / chroma_qp_offset=-4 / threads=22 / lookahead_threads=3 / sliced_threads=0 / nr=0 / decimate=1 / interlaced=0 / bluray_compat=0 / constrained_intra=0 / bframes=3 / b_pyramid=2 / b_adapt=1 / b_bias=0 / direct=3 / weightb=1 / open_gop=0 / weightp=2 / keyint=240 / keyint_min=24 / scenecut=40 / intra_refresh=0 / rc_lookahead=50 / rc=2pass / mbtree=1 / bitrate=4303 / ratetol=1.0 / qcomp=0.60 / qpmin=0 / qpmax=69 / qpstep=4 / cplxblur=20.0 / qblur=0.5 / ip_ratio=1.40 / aq=1:0.75
Default : Yes
Forced : No

Audio
ID : 2
Format : FLAC
Format/Info : Free Lossless Audio Codec
Codec ID : A_FLAC
Duration : 1 h 22 min
Bit rate mode : Variable
Bit rate : 271 kb/s
Channel(s) : 2 channels
Channel positions : Front: L R
Sampling rate : 48.0 kHz
Frame rate : 11.719 FPS (4096 spf)
Bit depth : 16 bits
Stream size : 160 MiB (6%)
Writing library : libFLAC 1.2.1 (UTC 2007-09-17)
Language : English
Default : Yes
Forced : No

Menu
00:00:00.000 : en:00:00:00.000
00:12:11.022 : en:00:12:11.022
00:23:45.466 : en:00:23:45.466
00:34:48.503 : en:00:34:48.503
00:47:44.695 : en:00:47:44.695
00:54:35.606 : en:00:54:35.606
01:03:44.237 : en:01:03:44.237
01:17:05.621 : en:01:17:05.621


Screenshots

The Brain That Wouldn't Die (1962)

The Brain That Wouldn't Die (1962)

The Brain That Wouldn't Die (1962)


Come Visit My Blog (•‿•)