The Blue Lamp (1950)

The Blue Lamp (1950)

The Blue Lamp (1950)
BDRip | MKV | 720x526 | AVC@1761 kb/s | English AAC@62.4 kb/s
Subs: English | 1 channel | 1 h 24 min | 1.08 GB
BDRip 720p | MKV | 992x720 | AVC@6747 kb/s | English FLAC@614 kb/s
Subs: English | 2 channels | 1 h 24 min | 4.37 GB
BDRip 1080p | MKV | 1488x1080 | AVC@12.3 Mb/s | English FLAC@614 kb/s
Subs: English | 2 channels | 1 h 24 min | 7.65 GB
Genre: Crime, Drama, Film-Noir

The daily routine of two London policemen is interrupted by a killer.

IMDB - Won 1 BAFTA Film Award. Another 1 nomination


General
Unique ID : 254102171373873913344138854202825017449 (0xBF2A4C4EDB9F6FFDBD5841AE22F48869)
Complete name : G:\HDNLUF221\Torrents\The.Blue.Lamp.1950.INTERNAL.BDRip.x264-RedBlade[rarbg]\The.Blue.Lamp.1950.INTERNAL.BDRip.x264-RedBlade.mkv
Format : Matroska
Format version : Version 2
File size : 1.08 GiB
Duration : 1 h 24 min
Overall bit rate : 1 826 kb/s
Encoded date : UTC 2017-01-27 20:48:28
Writing application : mkvmerge v9.6.0 ('Slave To Your Mind') 32bit
Writing library : libebml v1.3.4 + libmatroska v1.4.5

Video
ID : 1
Format : AVC
Format/Info : Advanced Video Codec
Format profile : High@L3.1
Format settings, CABAC : Yes
Format settings, ReFrames : 5 frames
Codec ID : V_MPEG4/ISO/AVC
Duration : 1 h 24 min
Bit rate : 1 761 kb/s
Width : 720 pixels
Height : 526 pixels
Display aspect ratio : 4:3
Frame rate mode : Constant
Frame rate : 24.000 FPS
Color space : YUV
Chroma subsampling : 4:2:0
Bit depth : 8 bits
Scan type : Progressive
Bits/(Pixel*Frame) : 0.194
Stream size : 1.05 GiB (96%)
Writing library : x264 core 148 r2744 b97ae06
Encoding settings : cabac=1 / ref=5 / deblock=1:0:0 / analyse=0x3:0x113 / me=hex / subme=8 / psy=1 / psy_rd=1.00:0.00 / mixed_ref=1 / me_range=16 / chroma_me=1 / trellis=2 / 8x8dct=1 / cqm=0 / deadzone=21,11 / fast_pskip=1 / chroma_qp_offset=-2 / threads=6 / lookahead_threads=1 / sliced_threads=0 / nr=0 / decimate=1 / interlaced=0 / bluray_compat=0 / constrained_intra=0 / bframes=3 / b_pyramid=2 / b_adapt=1 / b_bias=0 / direct=3 / weightb=1 / open_gop=0 / weightp=2 / keyint=240 / keyint_min=24 / scenecut=40 / intra_refresh=0 / rc_lookahead=50 / rc=crf / mbtree=1 / crf=21.0 / qcomp=0.60 / qpmin=10 / qpmax=51 / qpstep=4 / vbv_maxrate=17500 / vbv_bufsize=17500 / crf_max=0.0 / nal_hrd=none / filler=0 / ip_ratio=1.40 / aq=1:1.00
Language : English
Default : Yes
Forced : No
Color range : Limited
Matrix coefficients : BT.709

Audio
ID : 2
Format : AAC
Format/Info : Advanced Audio Codec
Format profile : LC
Codec ID : A_AAC
Duration : 1 h 24 min
Bit rate : 62.4 kb/s
Channel(s) : 1 channel
Channel positions : Front: C
Sampling rate : 48.0 kHz
Frame rate : 46.875 FPS (1024 spf)
Compression mode : Lossy
Delay relative to video : 9 ms
Stream size : 37.9 MiB (3%)
Language : English
Default : Yes
Forced : No

Text #1
ID : 3
Format : UTF-8
Codec ID : S_TEXT/UTF8
Codec ID/Info : UTF-8 Plain Text
Duration : 1 h 22 min
Bit rate : 75 b/s
Count of elements : 1271
Stream size : 45.3 KiB (0%)
Title : English
Language : English
Default : No
Forced : No

Text #2
ID : 4
Format : UTF-8
Codec ID : S_TEXT/UTF8
Codec ID/Info : UTF-8 Plain Text
Duration : 1 h 23 min
Bit rate : 76 b/s
Count of elements : 1338
Stream size : 46.6 KiB (0%)
Title : English SDH
Language : English
Default : No
Forced : No

Menu
00:00:00.000 : en:00:00:00.000
00:12:05.167 : en:00:12:05.167
00:21:05.708 : en:00:21:05.708
00:29:35.708 : en:00:29:35.708
00:43:59.375 : en:00:43:59.375
00:55:11.333 : en:00:55:11.333
01:06:41.333 : en:01:06:41.333
01:14:07.125 : en:01:14:07.125

General
Unique ID : 176442881989694987456128585288250984156 (0x84BDA9B9B2F979649FF9826FE88A86DC)
Complete name : G:\HDNLUF221\Torrents\The.Blue.Lamp.1950.720p.BluRay.x264-RedBlade[rarbg]\The.Blue.Lamp.1950.720p.BluRay.x264-RedBlade.mkv
Format : Matroska
Format version : Version 2
File size : 4.37 GiB
Duration : 1 h 24 min
Overall bit rate mode : Variable
Overall bit rate : 7 364 kb/s
Encoded date : UTC 2017-01-27 18:51:03
Writing application : mkvmerge v9.6.0 ('Slave To Your Mind') 32bit
Writing library : libebml v1.3.4 + libmatroska v1.4.5

Video
ID : 1
Format : AVC
Format/Info : Advanced Video Codec
Format profile : High@L4.1
Format settings, CABAC : Yes
Format settings, ReFrames : 5 frames
Codec ID : V_MPEG4/ISO/AVC
Duration : 1 h 24 min
Bit rate : 6 747 kb/s
Width : 992 pixels
Height : 720 pixels
Display aspect ratio : 1.378
Frame rate mode : Constant
Frame rate : 24.000 FPS
Color space : YUV
Chroma subsampling : 4:2:0
Bit depth : 8 bits
Scan type : Progressive
Bits/(Pixel*Frame) : 0.394
Stream size : 4.01 GiB (92%)
Writing library : x264 core 148 r2744 b97ae06
Encoding settings : cabac=1 / ref=5 / deblock=1:-3:-3 / analyse=0x3:0x113 / me=umh / subme=8 / psy=1 / psy_rd=1.00:0.00 / mixed_ref=1 / me_range=16 / chroma_me=1 / trellis=1 / 8x8dct=1 / cqm=0 / deadzone=21,11 / fast_pskip=1 / chroma_qp_offset=-2 / threads=6 / lookahead_threads=1 / sliced_threads=0 / nr=0 / decimate=1 / interlaced=0 / bluray_compat=0 / constrained_intra=0 / bframes=3 / b_pyramid=2 / b_adapt=2 / b_bias=0 / direct=3 / weightb=1 / open_gop=0 / weightp=2 / keyint=240 / keyint_min=24 / scenecut=40 / intra_refresh=0 / rc_lookahead=50 / rc=2pass / mbtree=1 / bitrate=6747 / ratetol=1.0 / qcomp=0.60 / qpmin=0 / qpmax=69 / qpstep=4 / cplxblur=20.0 / qblur=0.5 / vbv_maxrate=62500 / vbv_bufsize=78125 / nal_hrd=none / filler=0 / ip_ratio=1.40 / aq=1:1.00
Language : English
Default : Yes
Forced : No

Audio
ID : 2
Format : FLAC
Format/Info : Free Lossless Audio Codec
Codec ID : A_FLAC
Duration : 1 h 24 min
Bit rate mode : Variable
Bit rate : 614 kb/s
Channel(s) : 2 channels
Channel positions : Front: L R
Sampling rate : 48.0 kHz
Frame rate : 11.719 FPS (4096 spf)
Bit depth : 24 bits
Stream size : 374 MiB (8%)
Writing library : libFLAC 1.2.1 (UTC 2007-09-17)
Language : English
Default : Yes
Forced : No

Text #1
ID : 3
Format : UTF-8
Codec ID : S_TEXT/UTF8
Codec ID/Info : UTF-8 Plain Text
Duration : 1 h 22 min
Bit rate : 75 b/s
Count of elements : 1271
Stream size : 45.3 KiB (0%)
Title : English
Language : English
Default : No
Forced : No

Text #2
ID : 4
Format : UTF-8
Codec ID : S_TEXT/UTF8
Codec ID/Info : UTF-8 Plain Text
Duration : 1 h 23 min
Bit rate : 76 b/s
Count of elements : 1338
Stream size : 46.6 KiB (0%)
Title : English SDH
Language : English
Default : No
Forced : No

Menu
00:00:00.000 : en:00:00:00.000
00:12:05.167 : en:00:12:05.167
00:21:05.708 : en:00:21:05.708
00:29:35.708 : en:00:29:35.708
00:43:59.375 : en:00:43:59.375
00:55:11.333 : en:00:55:11.333
01:06:41.333 : en:01:06:41.333
01:14:07.125 : en:01:14:07.125

General
Unique ID : 184989579375753304153684966346952010697 (0x8B2BB270AF5A8D9495CECBBA02EFEBC9)
Complete name : G:\HDNLUF221\Torrents\The.Blue.Lamp.1950.1080p.BluRay.x264-RedBlade[rarbg]\The.Blue.Lamp.1950.1080p.BluRay.x264-RedBlade.mkv
Format : Matroska
Format version : Version 2
File size : 7.65 GiB
Duration : 1 h 24 min
Overall bit rate mode : Variable
Overall bit rate : 12.9 Mb/s
Encoded date : UTC 2017-01-27 18:51:50
Writing application : mkvmerge v9.6.0 ('Slave To Your Mind') 32bit
Writing library : libebml v1.3.4 + libmatroska v1.4.5

Video
ID : 1
Format : AVC
Format/Info : Advanced Video Codec
Format profile : High@L4.1
Format settings, CABAC : Yes
Format settings, ReFrames : 4 frames
Codec ID : V_MPEG4/ISO/AVC
Duration : 1 h 24 min
Bit rate : 12.3 Mb/s
Width : 1 488 pixels
Height : 1 080 pixels
Display aspect ratio : 1.378
Frame rate mode : Constant
Frame rate : 24.000 FPS
Color space : YUV
Chroma subsampling : 4:2:0
Bit depth : 8 bits
Scan type : Progressive
Bits/(Pixel*Frame) : 0.318
Stream size : 7.29 GiB (95%)
Writing library : x264 core 148 r2744 b97ae06
Encoding settings : cabac=1 / ref=4 / deblock=1:-3:-3 / analyse=0x3:0x113 / me=umh / subme=8 / psy=1 / psy_rd=1.00:0.00 / mixed_ref=1 / me_range=16 / chroma_me=1 / trellis=1 / 8x8dct=1 / cqm=0 / deadzone=21,11 / fast_pskip=1 / chroma_qp_offset=-2 / threads=6 / lookahead_threads=1 / sliced_threads=0 / nr=0 / decimate=1 / interlaced=0 / bluray_compat=0 / constrained_intra=0 / bframes=3 / b_pyramid=2 / b_adapt=2 / b_bias=0 / direct=3 / weightb=1 / open_gop=0 / weightp=2 / keyint=240 / keyint_min=24 / scenecut=40 / intra_refresh=0 / rc_lookahead=50 / rc=2pass / mbtree=1 / bitrate=12274 / ratetol=1.0 / qcomp=0.60 / qpmin=0 / qpmax=69 / qpstep=4 / cplxblur=20.0 / qblur=0.5 / vbv_maxrate=62500 / vbv_bufsize=78125 / nal_hrd=none / filler=0 / ip_ratio=1.40 / aq=1:1.00
Language : English
Default : Yes
Forced : No

Audio
ID : 2
Format : FLAC
Format/Info : Free Lossless Audio Codec
Codec ID : A_FLAC
Duration : 1 h 24 min
Bit rate mode : Variable
Bit rate : 614 kb/s
Channel(s) : 2 channels
Channel positions : Front: L R
Sampling rate : 48.0 kHz
Frame rate : 11.719 FPS (4096 spf)
Bit depth : 24 bits
Stream size : 374 MiB (5%)
Writing library : libFLAC 1.2.1 (UTC 2007-09-17)
Language : English
Default : Yes
Forced : No

Text #1
ID : 3
Format : UTF-8
Codec ID : S_TEXT/UTF8
Codec ID/Info : UTF-8 Plain Text
Duration : 1 h 22 min
Bit rate : 75 b/s
Count of elements : 1271
Stream size : 45.3 KiB (0%)
Title : English
Language : English
Default : No
Forced : No

Text #2
ID : 4
Format : UTF-8
Codec ID : S_TEXT/UTF8
Codec ID/Info : UTF-8 Plain Text
Duration : 1 h 23 min
Bit rate : 76 b/s
Count of elements : 1338
Stream size : 46.6 KiB (0%)
Title : English SDH
Language : English
Default : No
Forced : No

Menu
00:00:00.000 : en:00:00:00.000
00:12:05.167 : en:00:12:05.167
00:21:05.708 : en:00:21:05.708
00:29:35.708 : en:00:29:35.708
00:43:59.375 : en:00:43:59.375
00:55:11.333 : en:00:55:11.333
01:06:41.333 : en:01:06:41.333
01:14:07.125 : en:01:14:07.125


BDRip Screenshots

The Blue Lamp (1950)

The Blue Lamp (1950)

The Blue Lamp (1950)


BDRip 720p Screenshots

The Blue Lamp (1950)

The Blue Lamp (1950)

The Blue Lamp (1950)


BDRip 1080p Screenshots

The Blue Lamp (1950)

The Blue Lamp (1950)

The Blue Lamp (1950)


Come Visit My Blog (•‿•)