The Big Chill (1983) [Remastered]

The Big Chill (1983) [Remastered]

The Big Chill (1983)
BDRip | MKV | 720x390 | AVC@1190 kb/s | English AAC@126 kb/s
2 channels | 1 h 45 min | 993 MB
Genre: Comedy, Drama

A group of seven former college friends gather for a weekend reunion at a South Carolina winter house after the funeral of one of their friends.

IMDB - Nominated for 3 Oscars. Another 3 wins & 5 nominations


General
The.Big.Chill.1983.REMASTERED.BDRip.x264-SPRiNTER\The.Big.Chill.1983.REMASTERED.BDRip.x264-SPRiNTER.mkv
Format : Matroska
Format version : Version 4 / Version 2
File size : 993 MiB
Duration : 1 h 45 min
Overall bit rate : 1 319 kb/s
Encoded date : UTC 2017-09-04 21:35:49
Writing application : mkvmerge v15.0.0 ('Duel with the Devil') 64-bit
Writing library : libebml v1.3.5 + libmatroska v1.4.5

Video
ID : 1
Format : AVC
Format/Info : Advanced Video Codec
Format profile : High@L3.1
Format settings, CABAC : Yes
Format settings, ReFrames : 5 frames
Codec ID : V_MPEG4/ISO/AVC
Duration : 1 h 45 min
Bit rate : 1 190 kb/s
Width : 720 pixels
Height : 390 pixels
Display aspect ratio : 1.85:1
Frame rate mode : Constant
Frame rate : 23.976 (24000/1001) FPS
Color space : YUV
Chroma subsampling : 4:2:0
Bit depth : 8 bits
Scan type : Progressive
Bits/(Pixel*Frame) : 0.177
Stream size : 897 MiB (90%)
Writing library : x264 core 152 r2851 ba24899
Encoding settings : cabac=1 / ref=5 / deblock=1:-3:-3 / analyse=0x3:0x113 / me=umh / subme=8 / psy=1 / psy_rd=1.00:0.25 / mixed_ref=1 / me_range=24 / chroma_me=1 / trellis=2 / 8x8dct=1 / cqm=0 / deadzone=21,11 / fast_pskip=1 / chroma_qp_offset=-4 / threads=12 / lookahead_threads=2 / sliced_threads=0 / nr=0 / decimate=1 / interlaced=0 / bluray_compat=0 / constrained_intra=0 / bframes=3 / b_pyramid=2 / b_adapt=1 / b_bias=0 / direct=3 / weightb=1 / open_gop=0 / weightp=2 / keyint=240 / keyint_min=24 / scenecut=40 / intra_refresh=0 / rc_lookahead=50 / rc=crf / mbtree=1 / crf=19.0 / qcomp=0.60 / qpmin=0 / qpmax=69 / qpstep=4 / ip_ratio=1.40 / aq=1:0.75
Default : Yes
Forced : No
Color range : Limited
Matrix coefficients : BT.709

Audio
ID : 2
Format : AAC
Format/Info : Advanced Audio Codec
Format profile : LC
Codec ID : A_AAC
Duration : 1 h 45 min
Bit rate : 126 kb/s
Channel(s) : 2 channels
Channel positions : Front: L R
Sampling rate : 48.0 kHz
Frame rate : 46.875 FPS (1024 spf)
Compression mode : Lossy
Delay relative to video : 9 ms
Stream size : 95.2 MiB (10%)
Language : English
Default : Yes
Forced : No

Menu
00:00:00.000 : en:00:00:00.000
00:06:04.197 : en:00:06:04.197
00:08:27.048 : en:00:08:27.048
00:13:05.994 : en:00:13:05.994
00:19:48.270 : en:00:19:48.270
00:23:54.600 : en:00:23:54.600
00:28:17.029 : en:00:28:17.029
00:34:49.713 : en:00:34:49.713
00:38:01.112 : en:00:38:01.112
00:40:06.112 : en:00:40:06.112
00:43:54.590 : en:00:43:54.590
00:49:45.316 : en:00:49:45.316
00:52:33.484 : en:00:52:33.484
00:56:51.658 : en:00:56:51.658
01:02:54.104 : en:01:02:54.104
01:07:07.065 : en:01:07:07.065
01:09:59.404 : en:01:09:59.404
01:13:15.099 : en:01:13:15.099
01:20:21.942 : en:01:20:21.942
01:25:35.630 : en:01:25:35.630
01:32:25.039 : en:01:32:25.039
01:38:05.046 : en:01:38:05.046
01:42:02.658 : en:01:42:02.658


BDRip Screenshots

The Big Chill (1983) [Remastered]

The Big Chill (1983) [Remastered]

The Big Chill (1983) [Remastered]


Come Visit My Blog (•‿•)