The Young Girls of Rochefort / Les Demoiselles de Rochefort (1967) [British Film Institute]

The Young Girls of Rochefort / Les Demoiselles de Rochefort (1967) [British Film Institute]

The Young Girls of Rochefort / Les Demoiselles de Rochefort (1967) [British Film Institute]
BDRip | MKV | AVC, 1920x804, ~ 3.7 Mbps | 2hr 04mn | 5.23 GB
French (Français): DTS, 2 ch, 768 kbps \ French (Français): DTS, 6 ch, 768 kbps
English: AC3, 2 ch, 192 kbps \ AC3, 2 ch, 192 kbps \ AC3, 2 ch, 192 kbps \ AC3, 2 ch, 192 kbps
BDRip | MKV | AVC, 1280x536, ~ 2.5 Mbps | 2hr 04mn | 2.97 MB
French (Français): AC3, 2 ch, 448 kbps \ French (Français): AC3, 6 ch, 448 kbps
Subtitles: English
Genre: Comedy, Drama, Musical



Director: Jacques Demy
Writers: Jacques Demy
Stars: Catherine Deneuve, George Chakiris, Françoise Dorléac

Film Distributor: BFI (British Film Institute)

Delphine and Solange are two sisters living in Rochefort. Delphine is a dancing teacher and Solange composes and teaches the piano. Maxence is a poet and a painter. He is doing his military service. Simon owns a music shop, he left Paris once month ago to come back where he fell in love 10 years ago. They are looking for love, looking for each other, without being aware that their ideal partner is very close… A film whose scenario is much less important than its feeling of euphory, according to the director Jacques Demy.

Extras:
- Newly commissioned feature commentary by David Jenkins




General
Unique ID : 205847782287522015995893105100548292454 (0x9ADCD73DF81ABDD79683357EF0513F66)
Complete name : F:\TheYoungGirlsOfRochefort.67.BFI.1p\TheYoungGirlsOfRochefort.67.BFI.1p.mkv
Format : Matroska
Format version : Version 4
File size : 5.23 GiB
Duration : 2 h 4 min
Overall bit rate : 6 001 kb/s
Movie name : Release RSU75
Encoded date : UTC 2020-10-16 15:33:08
Writing application : mkvmerge v6.6.0 ('The Edge Of The In Between') built on Dec 1 2013 17:55:00
Writing library : libebml v1.3.0 + libmatroska v1.4.1

Video
ID : 1
Format : AVC
Format/Info : Advanced Video Codec
Format profile : High@L4.1
Format settings : CABAC / 4 Ref Frames
Format settings, CABAC : Yes
Format settings, Reference fra : 4 frames
Codec ID : V_MPEG4/ISO/AVC
Duration : 2 h 4 min
Nominal bit rate : 3 700 kb/s
Width : 1 920 pixels
Height : 804 pixels
Display aspect ratio : 2.40:1
Frame rate mode : Constant
Frame rate : 23.976 (23976/1000) FPS
Color space : YUV
Chroma subsampling : 4:2:0
Bit depth : 8 bits
Scan type : Progressive
Bits/(Pixel*Frame) : 0.100
Writing library : x264 core 148 r2643 5c65704
Encoding settings : cabac=1 / ref=4 / deblock=1:0:0 / analyse=0x3:0x113 / me=umh / subme=8 / psy=1 / psy_rd=1.00:0.00 / mixed_ref=1 / me_range=24 / chroma_me=1 / trellis=1 / 8x8dct=1 / cqm=0 / deadzone=21,11 / fast_pskip=1 / chroma_qp_offset=-2 / threads=3 / lookahead_threads=1 / sliced_threads=0 / nr=0 / decimate=1 / interlaced=0 / bluray_compat=0 / constrained_intra=0 / bframes=3 / b_pyramid=0 / b_adapt=2 / b_bias=0 / direct=3 / weightb=1 / open_gop=0 / weightp=2 / keyint=250 / keyint_min=25 / scenecut=40 / intra_refresh=0 / rc_lookahead=40 / rc=abr / mbtree=1 / bitrate=3700 / ratetol=1.0 / qcomp=0.60 / qpmin=10 / qpmax=51 / qpstep=4 / ip_ratio=1.41 / aq=1:1.00
Language : English
Default : Yes
Forced : No
Duration_Source : General_Duration

Audio #1
ID : 2
Format : DTS
Format/Info : Digital Theater Systems
Codec ID : A_DTS
Duration : 2 h 4 min
Bit rate mode : Constant
Bit rate : 768 kb/s
Channel(s) : 2 channels
Channel layout : L R
Sampling rate : 48.0 kHz
Frame rate : 93.750 FPS (512 SPF)
Bit depth : 24 bits
Compression mode : Lossy
Stream size : 686 MiB (13%)
Title : Stereo
Language : French
Default : Yes
Forced : No
Duration_Source : General_Duration

Audio #2
ID : 3
Format : DTS
Format/Info : Digital Theater Systems
Codec ID : A_DTS
Duration : 2 h 4 min
Bit rate mode : Constant
Bit rate : 768 kb/s
Channel(s) : 6 channels
Channel layout : C L R Ls Rs LFE
Sampling rate : 48.0 kHz
Frame rate : 93.750 FPS (512 SPF)
Bit depth : 24 bits
Compression mode : Lossy
Stream size : 686 MiB (13%)
Title : Surround 5.1
Language : French
Default : No
Forced : No
Duration_Source : General_Duration

Audio #3
ID : 4
Format : AC-3
Format/Info : Audio Coding 3
Codec ID : A_AC3
Duration : 2 h 4 min
Channel(s) : 2 channels
Sampling rate : 48.0 kHz
Compression mode : Lossy
Title : Stereo
Language : English
Default : No
Forced : No
Duration_Source : General_Duration

Audio #4
ID : 5
Format : AC-3
Format/Info : Audio Coding 3
Commercial name : Dolby Digital
Codec ID : A_AC3
Duration : 2 h 4 min
Bit rate mode : Constant
Bit rate : 192 kb/s
Channel(s) : 2 channels
Channel layout : L R
Sampling rate : 48.0 kHz
Frame rate : 31.250 FPS (1536 SPF)
Compression mode : Lossy
Stream size : 172 MiB (3%)
Title : Stereo
Language : English
Service kind : Complete Main
Default : No
Forced : No
Duration_Source : General_Duration

Audio #5
ID : 6
Format : AC-3
Format/Info : Audio Coding 3
Commercial name : Dolby Digital
Codec ID : A_AC3
Duration : 2 h 4 min
Bit rate mode : Constant
Bit rate : 192 kb/s
Channel(s) : 2 channels
Channel layout : L R
Sampling rate : 48.0 kHz
Frame rate : 31.250 FPS (1536 SPF)
Compression mode : Lossy
Stream size : 172 MiB (3%)
Title : Stereo
Language : English
Service kind : Complete Main
Default : No
Forced : No
Duration_Source : General_Duration

Audio #6
ID : 7
Format : AC-3
Format/Info : Audio Coding 3
Commercial name : Dolby Digital
Codec ID : A_AC3
Duration : 2 h 4 min
Bit rate mode : Constant
Bit rate : 192 kb/s
Channel(s) : 2 channels
Channel layout : L R
Sampling rate : 48.0 kHz
Frame rate : 31.250 FPS (1536 SPF)
Compression mode : Lossy
Stream size : 172 MiB (3%)
Title : Stereo
Language : English
Service kind : Complete Main
Default : No
Forced : No
Duration_Source : General_Duration

Text
ID : 8
Format : PGS
Muxing mode : zlib
Codec ID : S_HDMV/PGS
Codec ID/Info : Picture based subtitle format used on BDs/HD-DVDs
Language : English
Default : No
Forced : No

Menu
00:00:00.000 : en:Chapter 01
00:13:53.541 : en:Chapter 02
00:20:59.299 : en:Chapter 03
00:31:58.499 : en:Chapter 04
00:43:27.229 : en:Chapter 05
00:53:10.562 : en:Chapter 06
01:03:33.392 : en:Chapter 07
01:14:10.988 : en:Chapter 08
01:22:39.955 : en:Chapter 09
01:32:31.379 : en:Chapter 10
01:46:16.536 : en:Chapter 11
01:55:31.716 : en:Chapter 12






General
Unique ID : 174091298965625328080324029473863961307 (0x82F8C3BB170A3B6CA4330E999BAB0ADB)
Complete name : F:\TheYoungGirlsOfRochefort.67.BFI.7p\TheYoungGirlsOfRochefort.67.BFI.7p.mkv
Format : Matroska
Format version : Version 4
File size : 2.97 GiB
Duration : 2 h 4 min
Overall bit rate : 3 400 kb/s
Movie name : Release RSU75
Encoded date : UTC 2020-10-16 15:48:57
Writing application : mkvmerge v6.6.0 ('The Edge Of The In Between') built on Dec 1 2013 17:55:00
Writing library : libebml v1.3.0 + libmatroska v1.4.1

Video
ID : 1
Format : AVC
Format/Info : Advanced Video Codec
Format profile : High@L4.1
Format settings : CABAC / 4 Ref Frames
Format settings, CABAC : Yes
Format settings, Reference fra : 4 frames
Codec ID : V_MPEG4/ISO/AVC
Duration : 2 h 4 min
Bit rate : 2 500 kb/s
Width : 1 280 pixels
Height : 536 pixels
Display aspect ratio : 2.40:1
Frame rate mode : Constant
Frame rate : 23.976 (23976/1000) FPS
Color space : YUV
Chroma subsampling : 4:2:0
Bit depth : 8 bits
Scan type : Progressive
Bits/(Pixel*Frame) : 0.152
Stream size : 2.13 GiB (72%)
Writing library : x264 core 148 r2643 5c65704
Encoding settings : cabac=1 / ref=4 / deblock=1:0:0 / analyse=0x3:0x113 / me=umh / subme=8 / psy=1 / psy_rd=1.00:0.00 / mixed_ref=1 / me_range=24 / chroma_me=1 / trellis=1 / 8x8dct=1 / cqm=0 / deadzone=21,11 / fast_pskip=1 / chroma_qp_offset=-2 / threads=3 / lookahead_threads=1 / sliced_threads=0 / nr=0 / decimate=1 / interlaced=0 / bluray_compat=0 / constrained_intra=0 / bframes=3 / b_pyramid=0 / b_adapt=2 / b_bias=0 / direct=3 / weightb=1 / open_gop=0 / weightp=2 / keyint=250 / keyint_min=25 / scenecut=40 / intra_refresh=0 / rc_lookahead=40 / rc=abr / mbtree=1 / bitrate=2500 / ratetol=1.0 / qcomp=0.60 / qpmin=10 / qpmax=51 / qpstep=4 / ip_ratio=1.41 / aq=1:1.00
Language : English
Default : Yes
Forced : No
Duration_Source : General_Duration

Audio #1
ID : 2
Format : AC-3
Format/Info : Audio Coding 3
Commercial name : Dolby Digital
Codec ID : A_AC3
Duration : 2 h 4 min
Bit rate mode : Constant
Bit rate : 448 kb/s
Channel(s) : 6 channels
Channel layout : L R C LFE Ls Rs
Sampling rate : 48.0 kHz
Frame rate : 31.250 FPS (1536 SPF)
Compression mode : Lossy
Stream size : 400 MiB (13%)
Title : Surround 5.1
Language : French
Service kind : Complete Main
Default : Yes
Forced : No
Duration_Source : General_Duration

Audio #2
ID : 3
Format : AC-3
Format/Info : Audio Coding 3
Commercial name : Dolby Digital
Codec ID : A_AC3
Duration : 2 h 4 min
Bit rate mode : Constant
Bit rate : 448 kb/s
Channel(s) : 2 channels
Channel layout : L R
Sampling rate : 44.1 kHz
Frame rate : 28.711 FPS (1536 SPF)
Compression mode : Lossy
Stream size : 400 MiB (13%)
Title : Stereo
Language : French
Service kind : Complete Main
Default : No
Forced : No
Duration_Source : General_Duration

Text
ID : 4
Format : PGS
Muxing mode : zlib
Codec ID : S_HDMV/PGS
Codec ID/Info : Picture based subtitle format used on BDs/HD-DVDs
Language : English
Default : Yes
Forced : No

Menu
00:00:00.000 : en:Chapter 01
00:13:53.541 : en:Chapter 02
00:20:59.299 : en:Chapter 03
00:31:58.499 : en:Chapter 04
00:43:27.229 : en:Chapter 05
00:53:10.562 : en:Chapter 06
01:03:33.392 : en:Chapter 07
01:14:10.988 : en:Chapter 08
01:22:39.955 : en:Chapter 09
01:32:31.379 : en:Chapter 10
01:46:16.536 : en:Chapter 11
01:55:31.716 : en:Chapter 12




Screenshots 1080p (click to enlarge to original size):

The Young Girls of Rochefort / Les Demoiselles de Rochefort (1967) [British Film Institute]

The Young Girls of Rochefort / Les Demoiselles de Rochefort (1967) [British Film Institute]

The Young Girls of Rochefort / Les Demoiselles de Rochefort (1967) [British Film Institute]



Screenshots 720p (click to enlarge to original size):

The Young Girls of Rochefort / Les Demoiselles de Rochefort (1967) [British Film Institute]





More in My Blog



If you like this release please visit my blog
In it you will find ALL the latest BFI releases