The Tree of Wooden Clogs / L'albero degli zoccoli (1978) [Criterion Collection]

The Tree of Wooden Clogs / L'albero degli zoccoli (1978) [Criterion Collection]

The Tree of Wooden Clogs / L'albero degli zoccoli (1978) [Criterion Collection, Spine #854]
BDRip | MKV | AVC 988x720, ~ 2.6 Mbps | 3hr 07mn | 3.89 GB
Bergamasque: AC3, 1 ch, 192 Kbps; Italian: AC3, 1 ch, 192 Kbps
Subtitles(PGS): English, Italian
Genre: Drama, History
IMDB Rating: 8.0/10 (3.816 votes)


Director: Ermanno Olmi
Writers: Ermanno Olmi
Stars: Luigi Ornaghi, Francesca Moriggi, Omar Brignoli

The life inside a farm in Italy at the beginning of the century. Many poor country families live there, and the owner pays them by their productivity. One of the families has a very clever child. They decide to send him to school instead of make him help them, although this represents a great sacrifice. The boy has to wake up very early and walk several miles to get to the school. One day the boy's shoes break when returning home, but they do not have money to buy another pair. What can they do?




General
Unique ID : 235340740064953785894228305701755113439 (0xB10CFA53E36B55AB838793E50E274FDF)
Complete name : M:\TheTreeOfWoodenClogs.78.7p.Cr\TheTreeOfWoodenClogs.78.7p.Cr.mkv
Format : Matroska
Format version : Version 4 / Version 2
File size : 3.89 GiB
Duration : 3 h 7 min
Overall bit rate : 2 977 kb/s
Movie name : Release RSU75
Encoded date : UTC 2017-04-12 16:03:29
Writing application : mkvmerge v6.6.0 ('The Edge Of The In Between') built on Dec 1 2013 17:55:00
Writing library : libebml v1.3.0 + libmatroska v1.4.1

Video
ID : 1
Format : AVC
Format/Info : Advanced Video Codec
Format profile : High@L3.1
Format settings, CABAC : Yes
Format settings, ReFrames : 4 frames
Codec ID : V_MPEG4/ISO/AVC
Duration : 3 h 7 min
Bit rate : 2 598 kb/s
Width : 988 pixels
Height : 720 pixels
Display aspect ratio : 1.371
Original display aspect rat : 1.370
Frame rate mode : Constant
Frame rate : 23.976 (23976/1000) FPS
Color space : YUV
Chroma subsampling : 4:2:0
Bit depth : 8 bits
Scan type : Progressive
Bits/(Pixel*Frame) : 0.152
Stream size : 3.31 GiB (85%)
Writing library : x264 core 144 r2533 c8a773e
Encoding settings : cabac=1 / ref=4 / deblock=1:0:0 / analyse=0x3:0x113 / me=umh / subme=8 / psy=1 / psy_rd=1.00:0.00 / mixed_ref=1 / me_range=24 / chroma_me=1 / trellis=1 / 8x8dct=1 / cqm=0 / deadzone=21,11 / fast_pskip=1 / chroma_qp_offset=-2 / threads=3 / lookahead_threads=1 / sliced_threads=0 / nr=0 / decimate=1 / interlaced=0 / bluray_compat=0 / constrained_intra=0 / bframes=3 / b_pyramid=0 / b_adapt=2 / b_bias=0 / direct=3 / weightb=1 / open_gop=0 / weightp=2 / keyint=250 / keyint_min=25 / scenecut=40 / intra_refresh=0 / rc_lookahead=40 / rc=abr / mbtree=1 / bitrate=2598 / ratetol=1.0 / qcomp=0.60 / qpmin=10 / qpmax=51 / qpstep=4 / ip_ratio=1.41 / aq=1:1.00
Language : Italian
Default : Yes
Forced : No

Audio #1
ID : 2
Format : AC-3
Format/Info : Audio Coding 3
Mode extension : CM (complete main)
Format settings, Endianness : Big
Codec ID : A_AC3
Duration : 3 h 7 min
Bit rate mode : Constant
Bit rate : 192 kb/s
Channel(s) : 1 channel
Channel positions : Front: C
Sampling rate : 48.0 kHz
Frame rate : 31.250 FPS (1536 spf)
Bit depth : 16 bits
Compression mode : Lossy
Delay relative to video : -5 ms
Stream size : 257 MiB (6%)
Title : Bergamasque
Default : No
Forced : No

Audio #2
ID : 3
Format : AC-3
Format/Info : Audio Coding 3
Mode extension : CM (complete main)
Format settings, Endianness : Big
Codec ID : A_AC3
Duration : 3 h 7 min
Bit rate mode : Constant
Bit rate : 192 kb/s
Channel(s) : 1 channel
Channel positions : Front: C
Sampling rate : 48.0 kHz
Frame rate : 31.250 FPS (1536 spf)
Bit depth : 16 bits
Compression mode : Lossy
Delay relative to video : -42 ms
Stream size : 257 MiB (6%)
Language : Italian
Default : No
Forced : No

Text #1
ID : 4
Format : PGS
Muxing mode : zlib
Codec ID : S_HDMV/PGS
Codec ID/Info : Picture based subtitle format used on BDs/HD-DVDs
Language : English
Default : Yes
Forced : No

Text #2
ID : 5
Format : PGS
Muxing mode : zlib
Codec ID : S_HDMV/PGS
Codec ID/Info : Picture based subtitle format used on BDs/HD-DVDs
Language : English
Default : No
Forced : No




Screenshots (click to enlarge to original size):

The Tree of Wooden Clogs / L'albero degli zoccoli (1978) [Criterion Collection]

The Tree of Wooden Clogs / L'albero degli zoccoli (1978) [Criterion Collection]

The Tree of Wooden Clogs / L'albero degli zoccoli (1978) [Criterion Collection]

The Tree of Wooden Clogs / L'albero degli zoccoli (1978) [Criterion Collection]

The Tree of Wooden Clogs / L'albero degli zoccoli (1978) [Criterion Collection]



–––––––––––––––––––––––––––––––––––––––-
>>> Other BDRip <<< OR >>> "Criterion Collection" <<<
–––––––––––––––––––––––––––––––––––––––-
>>> Visit Blog RSU75 Here <<<
–––––––––––––––––––––––––––––––––––––––-