The River (1951) [Criterion Collection]

The River (1951) [Criterion Collection]

The River (1951) [Criterion Collection, Spine #276]
DVDRip | MKV | 1hr 39mn | AVC, ~1,7 Mbps | 720x480 | 1.45 GB
English: Dolby AC3, 1 ch, 384 kbps
Subtitles: English
Genre: Drama, Romance
IMDB Rating: 7.6/10 (4.364 votes)
Criterion.com


Director: Jean Renoir
Writers: Rumer Godden
Stars: Patricia Walters, Nora Swinburne, Esmond Knight

Harriet, now an adult, narrates the story of her coming of age growing up as a British national and a daughter of a jute press manager in the Bengal region of India, they living in the big house on the banks of one of the holy rivers. At the time, she is the eldest of six siblings - five girls and one boy - with another on the way and with she being significantly older the rest of her siblings. As such, she spends much time with an honorary member of their family, a late teen - not quite an adult - named Valerie, also a British national and the daughter of the jute press owner. Another friend, who recently arrived home from her western schooling, is Melanie, the biracial daughter of British national Mr. John and his then deceased Hindu wife. Both Mr. John and Melanie realize her difficult position, straddling both the Hindi and western cultures. Their small world is shaken up with the arrival of Captain John, Mr. John's cousin and an American ex-military man who has one prosthetic leg…




General
Unique ID : 246662549152428775759385670518011182215 (0xB9917A9CEFA55501891E2BFF5E41BC87)
Complete name : M:\TheRiver.51.Dr.Cr\TheRiver.51.Dr.Cr.mkv
Format : Matroska
Format version : Version 4 / Version 2
File size : 1.45 GiB
Duration : 1 h 39 min
Overall bit rate : 2 090 kb/s
Movie name : Release RSU75
Encoded date : UTC 2017-09-21 05:01:40
Writing application : mkvmerge v6.6.0 ('The Edge Of The In Between') built on Dec 1 2013 17:55:00
Writing library : libebml v1.3.0 + libmatroska v1.4.1

Video
ID : 1
Format : AVC
Format/Info : Advanced Video Codec
Format profile : High@L3
Format settings, CABAC : Yes
Format settings, ReFrames : 4 frames
Codec ID : V_MPEG4/ISO/AVC
Duration : 1 h 39 min
Bit rate : 1 699 kb/s
Width : 720 pixels
Height : 480 pixels
Display aspect ratio : 4:3
Frame rate mode : Constant
Frame rate : 23.976 (23976/1000) FPS
Color space : YUV
Chroma subsampling : 4:2:0
Bit depth : 8 bits
Scan type : Progressive
Bits/(Pixel*Frame) : 0.205
Stream size : 1.16 GiB (80%)
Writing library : x264 core 144 r2533 c8a773e
Encoding settings : cabac=1 / ref=4 / deblock=1:0:0 / analyse=0x3:0x113 / me=umh / subme=8 / psy=1 / psy_rd=1.00:0.00 / mixed_ref=1 / me_range=24 / chroma_me=1 / trellis=1 / 8x8dct=1 / cqm=0 / deadzone=21,11 / fast_pskip=1 / chroma_qp_offset=-2 / threads=3 / lookahead_threads=1 / sliced_threads=0 / nr=0 / decimate=1 / interlaced=0 / bluray_compat=0 / constrained_intra=0 / bframes=3 / b_pyramid=0 / b_adapt=2 / b_bias=0 / direct=3 / weightb=1 / open_gop=0 / weightp=2 / keyint=250 / keyint_min=25 / scenecut=40 / intra_refresh=0 / rc_lookahead=40 / rc=abr / mbtree=1 / bitrate=1699 / ratetol=1.0 / qcomp=0.60 / qpmin=10 / qpmax=51 / qpstep=4 / ip_ratio=1.41 / aq=1:1.00
Language : English
Default : Yes
Forced : No

Audio
ID : 2
Format : AC-3
Format/Info : Audio Coding 3
Mode extension : CM (complete main)
Format settings, Endianness : Big
Codec ID : A_AC3
Duration : 1 h 39 min
Bit rate mode : Constant
Bit rate : 384 kb/s
Channel(s) : 1 channel
Channel positions : Front: C
Sampling rate : 48.0 kHz
Frame rate : 31.250 FPS (1536 spf)
Bit depth : 16 bits
Compression mode : Lossy
Delay relative to video : -42 ms
Stream size : 273 MiB (18%)
Language : English
Default : Yes
Forced : No

Text
ID : 3
Format : VobSub
Muxing mode : zlib
Codec ID : S_VOBSUB
Codec ID/Info : Picture based subtitle format used on DVDs
Language : English
Default : Yes
Forced : No

Menu
00:00:00.000 : en:Chapter 01
00:02:59.779 : en:Chapter 02
00:09:25.731 : en:Chapter 03
00:15:36.368 : en:Chapter 04
00:25:48.179 : en:Chapter 05
00:30:02.066 : en:Chapter 06
00:36:30.254 : en:Chapter 07
00:41:30.321 : en:Chapter 08
00:45:35.365 : en:Chapter 09
00:48:08.619 : en:Chapter 10
00:59:58.695 : en:Chapter 11
01:05:12.875 : en:Chapter 12
01:14:00.436 : en:Chapter 13
01:19:59.227 : en:Chapter 14
01:26:14.235 : en:Chapter 15
01:33:47.755 : en:Chapter 16




Screenshots DVD(click to enlarge to original size):

The River (1951) [Criterion Collection]

The River (1951) [Criterion Collection]

The River (1951) [Criterion Collection]


The River (1951) [Criterion Collection]




–––––––––––––––––––––––––––––––––––––––-
>>> "DVDRip" <<<OR >>> "Criterion Collection" <<<
–––––––––––––––––––––––––––––––––––––––-
>>> Visit Blog RSU75 Here <<<
–––––––––––––––––––––––––––––––––––––––-