The Oldest Profession / Le plus vieux métier du monde (1967)

The Oldest Profession / Le plus vieux métier du monde (1967)

The Oldest Profession / Le plus vieux métier du monde (1967)
BDRip 1080p | MKV | AVC, 1792x1080, ~ 4.0 Mbps | 1hr 55mn | 4.52 GB | French (Français): DTS, 2 ch, 1510 kbps
BDRip 720p | MKV | AVC, 1192x720, ~ 2.9 Mbps | 1hr 55mn | 2.76 GB | French (Français): AC3, 2 ch, 448 kbps
Subtitles: English
Genre: Comedy, Drama



Director: Claude Autant-Lara, Mauro Bolognini, Philippe de Broca, Jean-Luc Godard, Franco Indovina, Michael Pfleghar
Writer: Ennio Flaiano, Daniel Boulanger, Georges Tabet, André Tabet, Jean Aurenche, Jean-Luc Godard
Stars: Michèle Mercier, Enrico Maria Salerno, Gabriele Tinti, Elsa Martinelli, Gastone Moschin, Giancarlo Cobelli, Jeanne Moreau, Catherine Samie, Jean-Claude Brialy, Jean Richard, Raquel Welch, Martin Held, Siegfried Schürenberg, Tilly Lauenstein, Nadia Gray, France Anglade, Jacques Duby, Marcel Dalio, Francis Blanche, Marilù Tolo, Anna Karina, Jacques Charrier, Daniel Bart, Gabriel Gobin, Gérard Lartigau, Jean-Patrick Lebel, Luigi Leoni, Jean-Pierre Léaud, Jacques Marin, Jacques Monod

Film Distributor: Kino Lorber

A collection of sketches on prostitution through the ages. 1) "The Prehistoric Era": A caveman discovers that a cavewoman is more attractive when cave paint is applied to her face. And she can earn more seashells that way. 2) "Roman Nights": The Emperor (Gastone Moschin) goes out seeking a little nocturnal amusement, only to find that the high-priced, Oriental courtesan he hires is his wife, the Empress (Elsa Martinelli). 3) "Mademoiselle Mimi": In revolutionary France, Mimi finds that her client, the nephew of a marquis, is more interested in watching the guillotinings out her window than he is in going to bed. 4) "The Gay Nineties": When Nini (Raquel Welch) discovers by accident that her antiquated customer is a banker, she pretends to be an honest woman who has fallen in love with him. She even pays him, just like a gigolo. 5) "Paris Today": Two girls pick up clients by driving around in a car, and then an ambulance. Police pull the vehicle over for speeding. 6) "Anticipation": Demetrius (Jacques Charrier) has just arrived on Earth from another galaxy. But the girl brought to him by the commissar, Hostess 703 (Anna Karina), is not a "physical love" girl; she's a "sentimental love" one, who only knows how to excite men with language.

Extras:
- None




General
Unique ID : 194208619667647600820077888806776457823 (0x921B38383432B86D8A9709961633CA5F)
Complete name : F:\TheOldestProfession.1967.KL.1p\TheOldestProfession.1967.KL.1p.mkv
Format : Matroska
Format version : Version 4 / Version 2
File size : 4.52 GiB
Duration : 1 h 55 min
Overall bit rate : 5 582 kb/s
Movie name : Release RSU75
Encoded date : UTC 2020-03-20 12:29:59
Writing application : mkvmerge v6.6.0 ('The Edge Of The In Between') built on Dec 1 2013 17:55:00
Writing library : libebml v1.3.0 + libmatroska v1.4.1

Video
ID : 1
Format : AVC
Format/Info : Advanced Video Codec
Format profile : High@L4.1
Format settings : CABAC / 4 Ref Frames
Format settings, CABAC : Yes
Format settings, ReFrames : 4 frames
Codec ID : V_MPEG4/ISO/AVC
Duration : 1 h 55 min
Bit rate : 4 000 kb/s
Width : 1 792 pixels
Height : 1 080 pixels
Display aspect ratio : 5:3
Frame rate mode : Constant
Frame rate : 23.976 (23976/1000) FPS
Color space : YUV
Chroma subsampling : 4:2:0
Bit depth : 8 bits
Scan type : Progressive
Bits/(Pixel*Frame) : 0.086
Stream size : 3.21 GiB (71%)
Writing library : x264 core 148 r2643 5c65704
Encoding settings : cabac=1 / ref=4 / deblock=1:0:0 / analyse=0x3:0x113 / me=umh / subme=8 / psy=1 / psy_rd=1.00:0.00 / mixed_ref=1 / me_range=24 / chroma_me=1 / trellis=1 / 8x8dct=1 / cqm=0 / deadzone=21,11 / fast_pskip=1 / chroma_qp_offset=-2 / threads=3 / lookahead_threads=1 / sliced_threads=0 / nr=0 / decimate=1 / interlaced=0 / bluray_compat=0 / constrained_intra=0 / bframes=3 / b_pyramid=0 / b_adapt=2 / b_bias=0 / direct=3 / weightb=1 / open_gop=0 / weightp=2 / keyint=250 / keyint_min=25 / scenecut=40 / intra_refresh=0 / rc_lookahead=40 / rc=abr / mbtree=1 / bitrate=4000 / ratetol=1.0 / qcomp=0.60 / qpmin=10 / qpmax=51 / qpstep=4 / ip_ratio=1.41 / aq=1:1.00
Language : English
Default : Yes
Forced : No

Audio
ID : 2
Format : DTS
Format/Info : Digital Theater Systems
Codec ID : A_DTS
Duration : 1 h 55 min
Bit rate mode : Constant
Bit rate : 1 509 kb/s
Channel(s) : 2 channels
Channel layout : L R
Sampling rate : 48.0 kHz
Frame rate : 93.750 FPS (512 SPF)
Bit depth : 24 bits
Compression mode : Lossy
Stream size : 1.22 GiB (27%)
Title : Stereo
Language : French
Default : Yes
Forced : No

Text
ID : 3
Format : PGS
Muxing mode : zlib
Codec ID : S_HDMV/PGS
Codec ID/Info : Picture based subtitle format used on BDs/HD-DVDs
Language : English
Default : Yes
Forced : No

Menu
00:00:00.000 : en:Chapter 01
00:12:17.528 : en:Chapter 02
00:19:38.719 : en:Chapter 03
00:37:11.020 : en:Chapter 04
00:43:11.046 : en:Chapter 05
00:55:19.190 : en:Chapter 06
01:05:33.387 : en:Chapter 07
01:15:36.698 : en:Chapter 08
01:35:31.976 : en:Chapter 09
01:45:12.264 : en:Chapter 10
01:55:55.865 : en:Chapter 11





General
Unique ID : 219151729741524586730406503874177124523 (0xA4DF167E7971E189B89AE0B0ED8DC8AB)
Complete name : F:\TheOldestProfession.1967.KL.7p\TheOldestProfession.1967.KL.7p.mkv
Format : Matroska
Format version : Version 4 / Version 2
File size : 2.76 GiB
Duration : 1 h 55 min
Overall bit rate : 3 414 kb/s
Movie name : Release RSU75
Encoded date : UTC 2020-03-23 03:20:37
Writing application : mkvmerge v6.6.0 ('The Edge Of The In Between') built on Dec 1 2013 17:55:00
Writing library : libebml v1.3.0 + libmatroska v1.4.1

Video
ID : 1
Format : AVC
Format/Info : Advanced Video Codec
Format profile : High@L4.1
Format settings : CABAC / 4 Ref Frames
Format settings, CABAC : Yes
Format settings, ReFrames : 4 frames
Codec ID : V_MPEG4/ISO/AVC
Duration : 1 h 55 min
Bit rate : 2 900 kb/s
Width : 1 192 pixels
Height : 720 pixels
Display aspect ratio : 5:3
Frame rate mode : Constant
Frame rate : 23.976 (23976/1000) FPS
Color space : YUV
Chroma subsampling : 4:2:0
Bit depth : 8 bits
Scan type : Progressive
Bits/(Pixel*Frame) : 0.141
Stream size : 2.35 GiB (85%)
Writing library : x264 core 148 r2643 5c65704
Encoding settings : cabac=1 / ref=4 / deblock=1:0:0 / analyse=0x3:0x113 / me=umh / subme=8 / psy=1 / psy_rd=1.00:0.00 / mixed_ref=1 / me_range=24 / chroma_me=1 / trellis=1 / 8x8dct=1 / cqm=0 / deadzone=21,11 / fast_pskip=1 / chroma_qp_offset=-2 / threads=3 / lookahead_threads=1 / sliced_threads=0 / nr=0 / decimate=1 / interlaced=0 / bluray_compat=0 / constrained_intra=0 / bframes=3 / b_pyramid=0 / b_adapt=2 / b_bias=0 / direct=3 / weightb=1 / open_gop=0 / weightp=2 / keyint=250 / keyint_min=25 / scenecut=40 / intra_refresh=0 / rc_lookahead=40 / rc=abr / mbtree=1 / bitrate=2900 / ratetol=1.0 / qcomp=0.60 / qpmin=10 / qpmax=51 / qpstep=4 / ip_ratio=1.41 / aq=1:1.00
Language : English
Default : Yes
Forced : No

Audio
ID : 2
Format : AC-3
Format/Info : Audio Coding 3
Commercial name : Dolby Digital
Codec ID : A_AC3
Duration : 1 h 55 min
Bit rate mode : Constant
Bit rate : 448 kb/s
Channel(s) : 2 channels
Channel layout : L R
Sampling rate : 48.0 kHz
Frame rate : 31.250 FPS (1536 SPF)
Bit depth : 16 bits
Compression mode : Lossy
Stream size : 372 MiB (13%)
Title : Stereo
Language : French
Service kind : Complete Main
Default : Yes
Forced : No

Text
ID : 3
Format : PGS
Muxing mode : zlib
Codec ID : S_HDMV/PGS
Codec ID/Info : Picture based subtitle format used on BDs/HD-DVDs
Language : English
Default : Yes
Forced : No

Menu
00:00:00.000 : en:Chapter 01
00:12:17.528 : en:Chapter 02
00:19:38.719 : en:Chapter 03
00:37:11.020 : en:Chapter 04
00:43:11.046 : en:Chapter 05
00:55:19.190 : en:Chapter 06
01:05:33.387 : en:Chapter 07
01:15:36.698 : en:Chapter 08
01:35:31.976 : en:Chapter 09
01:45:12.264 : en:Chapter 10
01:55:55.865 : en:Chapter 11




Screenshots 1080p (click to enlarge to original size):

The Oldest Profession / Le plus vieux métier du monde (1967)

The Oldest Profession / Le plus vieux métier du monde (1967)

The Oldest Profession / Le plus vieux métier du monde (1967)



Screenshots 720p (click to enlarge to original size):

The Oldest Profession / Le plus vieux métier du monde (1967)






If you like this release please visit my blog
In it you will find "BDRip" releases in different languages